Cuento de Invierno [WEBSCR][Castellano][2014]




La ciudad de Nueva York está sumida en un invierno durísimo, con vientos gélidos, noches oscuras y cegadores luces blancas. Una noche, Peter Lake (Colin Farrell), intenta robar una mansión del Upper West Side. Aunque cree que la casa está vacía, no es así: la hija de la familia se encuentra en ella. Entonces empieza la historia de amor entre Peter, un irlandés de mediana de edad, con Beverly Penn (Jessica Brown Findlay), una joven que... se está muriendo poco a poco. Adaptación de la novela de Mark Helprin.



Título: Cuento de invierno
Título original: Winter's Tale
Dirección: Akiva Goldsman
País: Estados Unidos
Año: 2014
Fecha de estreno: 14/02/2014
Duración: 118 min
Género: Drama, Intriga, Fantástico
Reparto: Russell Crowe, Colin Farrell, Jessica Brown Findlay, Jennifer Connelly, William Hurt, Matt Bomer, Will Smith, Kevin Durand, Eva Marie Saint, Kevin Corrigan
Web: www.winterstalemovie.com
Distribuidora: Warner Bros. Pictures
Productora: Warner Bros. Pictures, Village Roadshow Pictures, Weed Road Pictures

General
Format                                   : MPEG-4
Format profile                           : Base Media
Codec ID                                 : isom
File size                                : 677 MiB
Duration                                 : 1h 52mn
Overall bit rate mode                    : Variable
Overall bit rate                         : 841 Kbps
Writing application                      : Lavf54.63.104

Video
ID                                       : 1
Format                                   : AVC
Format/Info                              : Advanced Video Codec
Format profile                           : [email protected]
Format settings, CABAC                   : Yes
Format settings, ReFrames                : 4 frames
Codec ID                                 : avc1
Codec ID/Info                            : Advanced Video Coding
Duration                                 : 1h 52mn
Bit rate                                 : 750 Kbps
Width                                    : 720 pixels
Height                                   : 304 pixels
Display aspect ratio                     : 2.35:1
Frame rate mode                          : Constant
Frame rate                               : 30.000 fps
Color space                              : YUV
Chroma subsampling                       : 4:2:0
Bit depth                                : 8 bits
Scan type                                : Progressive
Bits/(Pixel*Frame)                       : 0.114
Stream size                              : 605 MiB (89%)
Writing library                          : x264 core 120 r2151 a3f4407
Encoding settings                        : cabac=1 / ref=3 / deblock=1:0:0 / analyse=0x3:0x113 / me=hex / subme=7 / psy=1 / psy_rd=1.00:0.00 / mixed_ref=1 / me_range=16 / chroma_me=1 / trellis=1 / 8x8dct=1 / cqm=0 / deadzone=21,11 / fast_pskip=1 / chroma_qp_offset=-2 / threads=16 / sliced_threads=0 / nr=0 / decimate=1 / interlaced=0 / bluray_compat=0 / constrained_intra=0 / bframes=3 / b_pyramid=2 / b_adapt=1 / b_bias=0 / direct=1 / weightb=1 / open_gop=0 / weightp=2 / keyint=25 / keyint_min=2 / scenecut=40 / intra_refresh=0 / rc_lookahead=25 / rc=abr / mbtree=1 / bitrate=750 / ratetol=1.0 / qcomp=0.60 / qpmin=0 / qpmax=69 / qpstep=4 / ip_ratio=1.40 / aq=1:1.00

Audio
ID                                       : 2
Format                                   : AAC
Format/Info                              : Advanced Audio Codec
Format profile                           : LC
Codec ID                                 : 40
Duration                                 : 1h 52mn
Duration_LastFrame                       : -35ms
Bit rate mode                            : Variable
Bit rate                                 : 83.5 Kbps
Maximum bit rate                         : 128 Kbps
Channel(s)                               : 2 channels
Channel positions                        : Front: L R
Sampling rate                            : 24.0 KHz
Compression mode                         : Lossy
Stream size                              : 67.2 MiB (10%)






http://www42.zippyshare.com/v/37012148/file.html
http://www31.zippyshare.com/v/3457216/file.html
http://www64.zippyshare.com/v/40931392/file.html
http://www5.zippyshare.com/v/99397740/file.html
Cuento de Invierno [WEBSCR][Castellano][2014]
0 Puntos Score: 0/10
Visitas: 1459 Favoritos: 1
2 Comentarios Cuento de Invierno [WEBSCR][Castellano][2014]
Cita antonyy20: Mostrar
Para dejar un comentario Registrate! o.. eres ya usuario? Accede!