Cuento de Invierno [HD 720p][VOSE][2014]




La ciudad de Nueva York está sumida en un invierno durísimo, con vientos gélidos, noches oscuras y cegadores luces blancas. Una noche, Peter Lake (Colin Farrell), intenta robar una mansión del Upper West Side. Aunque cree que la casa está vacía, no es así: la hija de la familia se encuentra en ella. Entonces empieza la historia de amor entre Peter, un irlandés de mediana de edad, con Beverly Penn (Jessica Brown Findlay), una joven que... se está muriendo poco a poco. Adaptación de la novela de Mark Helprin.



Título: Cuento de invierno
Título original: Winter's Tale
Dirección: Akiva Goldsman
País: Estados Unidos
Año: 2014
Fecha de estreno: 14/02/2014
Duración: 118 min
Género: Drama, Intriga, Fantástico
Reparto: Russell Crowe, Colin Farrell, Jessica Brown Findlay, Jennifer Connelly, William Hurt, Matt Bomer, Will Smith, Kevin Durand, Eva Marie Saint, Kevin Corrigan
Web: www.winterstalemovie.com
Distribuidora: Warner Bros. Pictures
Productora: Warner Bros. Pictures, Village Roadshow Pictures, Weed Road Pictures

General
Format                                   : AVI
Format/Info                              : Audio Video Interleave
Format profile                           : OpenDML
File size                                : 1.87 GiB
Duration                                 : 1h 57mn
Overall bit rate                         : 2 265 Kbps
Writing application                      : Lavf52.84.0

Video
ID                                       : 0
Format                                   : MPEG-4 Visual
Format profile                           : [email protected]
Format settings, BVOP                    : No
Format settings, QPel                    : No
Format settings, GMC                     : No warppoints
Format settings, Matrix                  : Default (H.263)
Codec ID                                 : XVID
Codec ID/Hint                            : XviD
Duration                                 : 1h 57mn
Bit rate                                 : 2 123 Kbps
Width                                    : 1 280 pixels
Height                                   : 528 pixels
Display aspect ratio                     : 2.40:1
Frame rate                               : 29.970 fps
Color space                              : YUV
Chroma subsampling                       : 4:2:0
Bit depth                                : 8 bits
Scan type                                : Progressive
Compression mode                         : Lossy
Bits/(Pixel*Frame)                       : 0.105
Stream size                              : 1.75 GiB (94%)
Writing library                          : Lavc52.97.0

Audio
ID                                       : 1
Format                                   : MPEG Audio
Format version                           : Version 1
Format profile                           : Layer 3
Mode                                     : Joint stereo
Mode extension                           : MS Stereo
Codec ID                                 : 55
Codec ID/Hint                            : MP3
Duration                                 : 1h 57mn
Bit rate mode                            : Constant
Bit rate                                 : 128 Kbps
Channel(s)                               : 2 channels
Sampling rate                            : 48.0 KHz
Compression mode                         : Lossy
Stream size                              : 108 MiB (6%)
Alignment                                : Aligned on interleaves
Interleave, duration                     : 24 ms (0.72 video frame)






http://www45.zippyshare.com/v/79188752/file.html
http://www73.zippyshare.com/v/99602790/file.html
http://www34.zippyshare.com/v/23073006/file.html
http://www23.zippyshare.com/v/80115332/file.html
http://www21.zippyshare.com/v/40403922/file.html
http://www27.zippyshare.com/v/6050128/file.html
http://www37.zippyshare.com/v/89447897/file.html
http://www57.zippyshare.com/v/87309922/file.html
http://www27.zippyshare.com/v/58814810/file.html
http://www63.zippyshare.com/v/41410308/file.html
Cuento de Invierno [HD 720p][VOSE][2014]
0 Puntos Score: 0/10
Visitas: 2989 Favoritos: 0
3 Comentarios Cuento de Invierno [HD 720p][VOSE][2014]
Gracias X mil Descargando, Buen Aporte  
Link desactualizados
Buen amorte. Lastima que est?
Para dejar un comentario Registrate! o.. eres ya usuario? Accede!