Alabama Monroe [BRSCR][Castellano][2012]




Elise y Didier (Veerle Baetens y Johan Heldenbergh) se enamoran a primera vista. Ella es la responsable de una tienda de tatuajes y él toca el banjo en una banda de bluegrass. Ambos comparten un gran entusiasmo por la música y la cultura folk, y se adentran en una relación pasional dentro y fuera de los escenarios. Pero todo se tuerce cuando una desgraciada tragedia golpea a esta nueva familia. Arranca así un potente melodrama que no dejará al espectador indiferente.



Título: Alabama Monroe
Título original: The Broken Circle Breakdown
Dirección: Felix Van Groeningen
País: Bélgica
Año: 2012
Fecha de estreno: 14/02/2014
Duración: 111 min
Género: Drama, Romance, Música
Calificación: No recomendada para menores de 16 años
Reparto: Veerle Baetens, Johan Heldenbergh, Robbie Cleiren, Jan Bijvoet
Web: www.facebook.com/TheBrokenCircleBreakdown
Distribuidora: Golem Distribución
Productora: No disponible

General
Format                                   : MPEG-4
Format profile                           : Base Media
Codec ID                                 : isom
File size                                : 668 MiB
Duration                                 : 1h 51mn
Overall bit rate mode                    : Variable
Overall bit rate                         : 837 Kbps
Writing application                      : Lavf54.63.104

Video
ID                                       : 1
Format                                   : AVC
Format/Info                              : Advanced Video Codec
Format profile                           : [email protected]
Format settings, CABAC                   : Yes
Format settings, ReFrames                : 4 frames
Codec ID                                 : avc1
Codec ID/Info                            : Advanced Video Coding
Duration                                 : 1h 51mn
Bit rate                                 : 750 Kbps
Width                                    : 720 pixels
Height                                   : 304 pixels
Display aspect ratio                     : 2.35:1
Frame rate mode                          : Constant
Frame rate                               : 24.000 fps
Color space                              : YUV
Chroma subsampling                       : 4:2:0
Bit depth                                : 8 bits
Scan type                                : Progressive
Bits/(Pixel*Frame)                       : 0.143
Stream size                              : 598 MiB (90%)
Writing library                          : x264 core 120 r2151 a3f4407
Encoding settings                        : cabac=1 / ref=3 / deblock=1:0:0 / analyse=0x3:0x113 / me=hex / subme=7 / psy=1 / psy_rd=1.00:0.00 / mixed_ref=1 / me_range=16 / chroma_me=1 / trellis=1 / 8x8dct=1 / cqm=0 / deadzone=21,11 / fast_pskip=1 / chroma_qp_offset=-2 / threads=16 / sliced_threads=0 / nr=0 / decimate=1 / interlaced=0 / bluray_compat=0 / constrained_intra=0 / bframes=3 / b_pyramid=2 / b_adapt=1 / b_bias=0 / direct=1 / weightb=1 / open_gop=0 / weightp=2 / keyint=25 / keyint_min=2 / scenecut=40 / intra_refresh=0 / rc_lookahead=25 / rc=abr / mbtree=1 / bitrate=750 / ratetol=1.0 / qcomp=0.60 / qpmin=0 / qpmax=69 / qpstep=4 / ip_ratio=1.40 / aq=1:1.00

Audio
ID                                       : 2
Format                                   : AAC
Format/Info                              : Advanced Audio Codec
Format profile                           : LC
Codec ID                                 : 40
Duration                                 : 1h 51mn
Duration_LastFrame                       : -19ms
Bit rate mode                            : Variable
Bit rate                                 : 83.0 Kbps
Maximum bit rate                         : 128 Kbps
Channel(s)                               : 2 channels
Channel positions                        : Front: L R
Sampling rate                            : 24.0 KHz
Compression mode                         : Lossy
Stream size                              : 66.3 MiB (10%)






http://www25.zippyshare.com/v/65630620/file.html
http://www63.zippyshare.com/v/57672945/file.html
http://www72.zippyshare.com/v/78743821/file.html
http://www48.zippyshare.com/v/27001271/file.html
Alabama Monroe [BRSCR][Castellano][2012]
0 Puntos Score: 0/10
Visitas: 811 Favoritos: 0
0 Comentarios Alabama Monroe [BRSCR][Castellano][2012]
Este post no tiene comentarios. Sea el primero!
Para dejar un comentario Registrate! o.. eres ya usuario? Accede!