Oops.. Este post tiene los enlaces eliminados!

Identi revisa las denuncias de los usuarios en busca de enlaces eliminados que no dejan descargar los archivos, este mensaje te informa que este post que estas viendo tiene los enlaces eliminados.

Usa el Buscador

Por favor, te recomendamos que uses el buscador para encontrar más alternativas.

El mono desnudo Desmond Morris

  • Categoría: Reciclaje
  • Publicado hace más de 2 años




El animal humano : Una visión personal de la especie humana es una BBC carácter documental serie escrita y presentada por Desmond Morris , transmitido por primera vez en el Reino Unido desde el 27 de julio de 1994. La serie fue producida en asociación con Discovery Channel .

Morris lo describe como "un estudio de la conducta humana desde una perspectiva zoológica. " Viaja por todo el mundo, filmando las diversas costumbres y hábitos de las diversas regiones al tiempo que sugiere raíces comunes. Al cierre del primer episodio, Morris dijo:

A veces me han acusado de degradar a la humanidad, de insultar la dignidad humana , de hacer al hombre bestial. Esto me sorprendió porque me gustan los animales, y me siento orgulloso de decir que soy uno. Nunca he mirado abajo sobre ellos, por lo que llamar a los seres humanos los animales no es, para mí, degradantes. Se trata simplemente de ser honesto: ponernos en nuestro lugar como parte del esquema de la naturaleza en el planeta Tierra .





Episodios

1. "El lenguaje del cuerpo"
Gestos : Saludos, Insultos, señales, gestos
Expresiones faciales : Miradas, sonrisas, Dice



2. "The Hunting Ape"
Dieta: El cariño por los dulces, variedad culinaria
Evolución: el vegetarianismo arbóreo, Savannah comer carne, la caza cooperativa con armas, preparación de alimentos, hipótesis simio acuático
Comportamiento de caza vestigal: Empleo, Deporte Caza, Guerra



3. "El Zoo Humano"
Urban tribalismo : La familiaridad, Robo, Uniformes, Rituales, Conflicto, estatus social, Territorio



4. "La biología del amor" 
Cortejo: La búsqueda de socios, señales de Género, Conocimientos, signos Lazo , unión de la pareja, las relaciones sexuales



5. "Los genes inmortales"
Ciclo de vida: la interacción padres-hijo, las señales del bebé, comportamiento infantil, ritos de paso, el adoctrinamiento cultural, el envejecimiento Lucha, Abuelos, Afterlives



6. "Más allá de la supervivencia"
Creatividad: adorno corporal, adornos arquitectónicos, Vehículos, Arte
Progresión artística: garabatos Innata, Realismo
Juego: experimentación Infancia, la inventiva adultos, Deportes, en busca de emociones, el pensamiento simbólico





Format                                   : AVI
Format/Info                              : Audio Video Interleave
File size                                : 472 MiB
Duration                                 : 49mn 15s
Overall bit rate                         : 1 340 Kbps
Writing application                      : Lavf51.12.1

Video
ID                                       : 0
Format                                   : xvid
Codec ID                                 : xvid
Duration                                 : 49mn 15s
Bit rate                                 : 1 200 Kbps
Width                                    : 544 pixels
Height                                   : 408 pixels
Display aspect ratio                     : 4:3
Frame rate                               : 25.000 fps
Bits/(Pixel*Frame)                       : 0.216
Stream size                              : 423 MiB (90%)

Audio
ID                                       : 1
Format                                   : MPEG Audio
Format version                           : Version 1
Format profile                           : Layer 3
Mode                                     : Joint stereo
Mode extension                           : MS Stereo
Codec ID                                 : 55
Codec ID/Hint                            : MP3
Duration                                 : 49mn 15s
Bit rate mode                            : Constant
Bit rate                                 : 128 Kbps
Channel count                            : 2 channels
Sampling rate                            : 44.1 KHz
Compression mode                         : Lossy
Stream size                              : 45.1 MiB (10%)
Alignment                                : Aligned on interleaves
Interleave, duration                     : 26 ms (0.65 video frame)
Interleave, preload duration             : 26 ms











El mono desnudo Desmond Morris
62 Puntos Score: 8.9/10
Visitas: 1943 Favoritos: 6
Ver los usuarios que votaron...
22 Comentarios El mono desnudo Desmond Morris
Gracias!!! bien interesante  
Disculpa pero no veo en ning?
@sawadypap
Cita sawadypap: Mostrar
@NmLCygni pidiendo puntos ? me parece que queres acompa?
@RogerX @chicacec  gracias por pasar
Cita RogerX: Mostrar
@sawadypap equivocate mas seguido y asi  me dejas mas y mas puntos jejeje
bajando +5
Garcias
(Si estubiera en mega te dejaba 10 )
@Subidas creo te mande la las imagenes de banner



son estas 2
Buen tema, a favoritos y luego descargar   , se agradece
@Mirabai @yonhy5 @RogerX @chicacec gracias por psar
Cita yonhy5: Mostrar
no se porque el comentario si Shared funciona de maravilla lo subiria  a mega pero me denunciaron como 3 cuentas  ya para mi no es opci?
@NmLCygni men renders son imagenes sin fondo asi como esta

podrias conseguirme estas imagenes asi o buscarlas como .png ???
es q no se q personajes es el de la primera imagen xD

Cita NmLCygni: Mostrar
@Subidas  aya te entendi las buscare aunque creo que no habra te aviso
gracias por contestar


hice estas 2 en png y mas peque?
espero te guste amigo,la neta q con las imagenes q me pasastes no me hubiera salido bien es q para hacer este tipo de baners se necesitan imagenes sin fondo (renders)
@Subidas gracias asi era mas o menos lo usare despues tratare de conseguir esas imagenes que dices haber si asi podrias hacerlo de nuevo espero no haberte molestado gracias  
tonz ta en latino, castellano, aleman, italiano, griego, latin, japones, o que onda?
no conocia pero gracias van 10
Para dejar un comentario Registrate! o.. eres ya usuario? Accede!