Emperador [HD 720p][Latino][2012]




Película basada en los días posteriores al lanzamiento de la bomba atómica sobre las ciudades de Hiroshima y Nagasaki en 1945. Este terrible acontecimiento marcó la rendición del emperador Hirohito (Takataro Kataoka) y el fin de la Segunda Guerra Mundial. Después, el presidente Truman encargó al general MacArthur (Tommy Lee Jones) la tarea de restaurar el gobierno japonés con la convocatoria de elecciones democráticas. Pero, ¿qué debía hacer MacArthur con el emperador? Otro estadounidense le seguirá de cerca para vigilar que cumple con su misión. Se trata de Bonner Fellers (Matthew Fox), un apasionado de la cultura asiática.



Título: Emperador
Título original: Emperor
Dirección: Peter Webber
País: Estados Unidos, Japón
Año: 2012
Fecha de estreno: 07/03/2014
Duración: 105 min
Género: Drama, Histórico, Bélico
Reparto: Matthew Fox, Tommy Lee Jones, Eriko Hatsune, Kaori Momoi, Aaron Jackson, Colin Moy, William Wallace, Masatô Ibu
Web: www.emperor-themovie.com
Distribuidora: A Contracorriente Films
Productora: Krasnoff Foster Productions

General
Format                                   : Matroska
Format version                           : Version 4 / Version 2
File size                                : 1.05 GiB
Duration                                 : 1h 45mn
Overall bit rate                         : 1 424 Kbps
Encoded date                             : UTC 2014-01-06 21:27:44
Writing application                      : mkvmerge v6.6.0 ('The Edge Of The In Between') built on Dec  1 2013 17:55:00
Writing library                          : libebml v1.3.0 + libmatroska v1.4.1

Video
ID                                       : 1
Format                                   : AVC
Format/Info                              : Advanced Video Codec
Format profile                           : [email protected]
Format settings, CABAC                   : Yes
Format settings, ReFrames                : 5 frames
Codec ID                                 : V_MPEG4/ISO/AVC
Duration                                 : 1h 45mn
Bit rate                                 : 975 Kbps
Width                                    : 1 280 pixels
Height                                   : 544 pixels
Display aspect ratio                     : 2.35:1
Frame rate                               : 23.976 fps
Color space                              : YUV
Chroma subsampling                       : 4:2:0
Bit depth                                : 8 bits
Scan type                                : Progressive
Bits/(Pixel*Frame)                       : 0.058
Stream size                              : 716 MiB (67%)
Writing library                          : x264 core 132 r2 76a5c3a
Encoding settings                        : cabac=1 / ref=5 / deblock=1:-1:-1 / analyse=0x3:0x133 / me=umh / subme=9 / psy=1 / psy_rd=1.00:0.15 / mixed_ref=1 / me_range=24 / chroma_me=1 / trellis=2 / 8x8dct=1 / cqm=0 / deadzone=21,11 / fast_pskip=0 / chroma_qp_offset=-3 / threads=18 / lookahead_threads=1 / sliced_threads=0 / nr=0 / decimate=1 / interlaced=0 / bluray_compat=0 / constrained_intra=0 / bframes=3 / b_pyramid=2 / b_adapt=2 / b_bias=0 / direct=3 / weightb=1 / open_gop=0 / weightp=2 / keyint=250 / keyint_min=23 / scenecut=40 / intra_refresh=0 / rc_lookahead=60 / rc=2pass / mbtree=1 / bitrate=975 / ratetol=1.0 / qcomp=0.60 / qpmin=0 / qpmax=69 / qpstep=4 / cplxblur=20.0 / qblur=0.5 / vbv_maxrate=31250 / vbv_bufsize=31250 / nal_hrd=none / ip_ratio=1.40 / aq=1:1.00
Default                                  : Yes
Forced                                   : No
Color primaries                          : BT.709-5, BT.1361, IEC 61966-2-4, SMPTE RP177
Matrix coefficients                      : BT.709-5, BT.1361, IEC 61966-2-4 709, SMPTE RP177

Audio
ID                                       : 2
Format                                   : AC-3
Format/Info                              : Audio Coding 3
Mode extension                           : CM (complete main)
Format settings, Endianness              : Big
Codec ID                                 : A_AC3
Duration                                 : 1h 45mn
Bit rate mode                            : Constant
Bit rate                                 : 448 Kbps
Channel(s)                               : 6 channels
Channel positions                        : Front: L C R, Side: L R, LFE
Sampling rate                            : 48.0 KHz
Bit depth                                : 16 bits
Compression mode                         : Lossy
Stream size                              : 338 MiB (31%)
Title                                    : LATINO
Language                                 : Spanish
Default                                  : Yes
Forced                                   : No






http://www27.zippyshare.com/v/69836726/file.html
http://www48.zippyshare.com/v/44861392/file.html
http://www6.zippyshare.com/v/63580038/file.html
http://www30.zippyshare.com/v/59940200/file.html
http://www58.zippyshare.com/v/12502257/file.html
http://www38.zippyshare.com/v/42439554/file.html
Emperador [HD 720p][Latino][2012]
0 Puntos Score: 0/10
Visitas: 1780 Favoritos: 1
2 Comentarios Emperador [HD 720p][Latino][2012]
gracias amigo por la pelicula saludos  
Para dejar un comentario Registrate! o.. eres ya usuario? Accede!