Emperador [BRSCR][Castellano][2012]




Película basada en los días posteriores al lanzamiento de la bomba atómica sobre las ciudades de Hiroshima y Nagasaki en 1945. Este terrible acontecimiento marcó la rendición del emperador Hirohito (Takataro Kataoka) y el fin de la Segunda Guerra Mundial. Después, el presidente Truman encargó al general MacArthur (Tommy Lee Jones) la tarea de restaurar el gobierno japonés con la convocatoria de elecciones democráticas. Pero, ¿qué debía hacer MacArthur con el emperador? Otro estadounidense le seguirá de cerca para vigilar que cumple con su misión. Se trata de Bonner Fellers (Matthew Fox), un apasionado de la cultura asiática.



Título: Emperador
Título original: Emperor
Dirección: Peter Webber
País: Estados Unidos, Japón
Año: 2012
Fecha de estreno: 07/03/2014
Duración: 105 min
Género: Drama, Histórico, Bélico
Reparto: Matthew Fox, Tommy Lee Jones, Eriko Hatsune, Kaori Momoi, Aaron Jackson, Colin Moy, William Wallace, Masatô Ibu
Web: www.emperor-themovie.com
Distribuidora: A Contracorriente Films
Productora: Krasnoff Foster Productions

General
Format                                   : MPEG-4
Format profile                           : Base Media
Codec ID                                 : isom
File size                                : 631 MiB
Duration                                 : 1h 45mn
Overall bit rate mode                    : Variable
Overall bit rate                         : 836 Kbps
Writing application                      : Lavf54.63.104

Video
ID                                       : 1
Format                                   : AVC
Format/Info                              : Advanced Video Codec
Format profile                           : [email protected]
Format settings, CABAC                   : Yes
Format settings, ReFrames                : 4 frames
Codec ID                                 : avc1
Codec ID/Info                            : Advanced Video Coding
Duration                                 : 1h 45mn
Bit rate                                 : 750 Kbps
Width                                    : 720 pixels
Height                                   : 304 pixels
Display aspect ratio                     : 2.35:1
Frame rate mode                          : Variable
Frame rate                               : 23.976 fps
Minimum frame rate                       : 11.988 fps
Maximum frame rate                       : 23.976 fps
Color space                              : YUV
Chroma subsampling                       : 4:2:0
Bit depth                                : 8 bits
Scan type                                : Progressive
Bits/(Pixel*Frame)                       : 0.143
Stream size                              : 565 MiB (90%)
Writing library                          : x264 core 120 r2151 a3f4407
Encoding settings                        : cabac=1 / ref=3 / deblock=1:0:0 / analyse=0x3:0x113 / me=hex / subme=7 / psy=1 / psy_rd=1.00:0.00 / mixed_ref=1 / me_range=16 / chroma_me=1 / trellis=1 / 8x8dct=1 / cqm=0 / deadzone=21,11 / fast_pskip=1 / chroma_qp_offset=-2 / threads=16 / sliced_threads=0 / nr=0 / decimate=1 / interlaced=0 / bluray_compat=0 / constrained_intra=0 / bframes=3 / b_pyramid=2 / b_adapt=1 / b_bias=0 / direct=1 / weightb=1 / open_gop=0 / weightp=2 / keyint=25 / keyint_min=2 / scenecut=40 / intra_refresh=0 / rc_lookahead=25 / rc=abr / mbtree=1 / bitrate=750 / ratetol=1.0 / qcomp=0.60 / qpmin=0 / qpmax=69 / qpstep=4 / ip_ratio=1.40 / aq=1:1.00

Audio
ID                                       : 2
Format                                   : AAC
Format/Info                              : Advanced Audio Codec
Format profile                           : LC
Codec ID                                 : 40
Duration                                 : 1h 45mn
Bit rate mode                            : Variable
Bit rate                                 : 83.2 Kbps
Maximum bit rate                         : 128 Kbps
Channel(s)                               : 2 channels
Channel positions                        : Front: L R
Sampling rate                            : 24.0 KHz
Compression mode                         : Lossy
Stream size                              : 62.8 MiB (10%)






http://www14.zippyshare.com/v/72466202/file.html
http://www36.zippyshare.com/v/63576577/file.html
http://www8.zippyshare.com/v/96231063/file.html
http://www64.zippyshare.com/v/36767142/file.html
Emperador [BRSCR][Castellano][2012]
10 Puntos Score: 10/10
Visitas: 725 Favoritos: 0
Ver los usuarios que votaron...
2 Comentarios Emperador [BRSCR][Castellano][2012]
parece buena... pero en el jdownloader no puedo bajar de zipy... la tendre q buscar de otro lado, que puntaje le pones a la peli?
gracias
@LucioLulo yo la acabo de bajar con j-downloader 2 ..sin completar capchas  es igual que el 1 pero actualizado
Para dejar un comentario Registrate! o.. eres ya usuario? Accede!