En Solitario [BRSCR][Castellano][2014]




La Vendée Globe es una de las regatas más duras que se celebran en el mundo, hasta el punto de que los participantes arriesgan su propia vida. En esta película, basada en hechos reales, Frank Drevil (Guillaume Canet) es un regatista que se lesiona días antes de la prueba y que es sustituido por Yann Kermadec (François Cluzet). Al llegar a la altura de Cabo Verde, Yann se ve forzado a parar porque el barco se ha averiado. Cuando regresa a alta mar, nota que algo va mal. Pero ya es tarde para remediarlo. Tiene que llegar hasta el final.



Título: En solitario
Título original: En solitaire
Dirección: Christophe Offenstein
País: Francia
Año: 2013
Fecha de estreno: 01/01/2014
Duración: 126 min
Género: Drama
Calificación: No recomendada para menores de 7 años
Reparto: Guillaume Canet, François Cluzet, Karine Vanasse, Arly Jover, Virginie Efira, Jean-Paul Rouve
Web: www.gaumont.fr/fr/film/En-solitaire.html
Distribuidora: A Contracorriente Films
Productora: Gaumont

General
Format                                   : MPEG-4
Format profile                           : Base Media
Codec ID                                 : isom
File size                                : 605 MiB
Duration                                 : 1h 40mn
Overall bit rate mode                    : Variable
Overall bit rate                         : 839 Kbps
Writing application                      : Lavf54.63.104

Video
ID                                       : 1
Format                                   : AVC
Format/Info                              : Advanced Video Codec
Format profile                           : [email protected]
Format settings, CABAC                   : Yes
Format settings, ReFrames                : 4 frames
Codec ID                                 : avc1
Codec ID/Info                            : Advanced Video Coding
Duration                                 : 1h 40mn
Bit rate                                 : 750 Kbps
Width                                    : 720 pixels
Height                                   : 304 pixels
Display aspect ratio                     : 2.35:1
Frame rate mode                          : Constant
Frame rate                               : 23.976 fps
Color space                              : YUV
Chroma subsampling                       : 4:2:0
Bit depth                                : 8 bits
Scan type                                : Progressive
Bits/(Pixel*Frame)                       : 0.143
Stream size                              : 542 MiB (90%)
Writing library                          : x264 core 120 r2151 a3f4407
Encoding settings                        : cabac=1 / ref=3 / deblock=1:0:0 / analyse=0x3:0x113 / me=hex / subme=7 / psy=1 / psy_rd=1.00:0.00 / mixed_ref=1 / me_range=16 / chroma_me=1 / trellis=1 / 8x8dct=1 / cqm=0 / deadzone=21,11 / fast_pskip=1 / chroma_qp_offset=-2 / threads=16 / sliced_threads=0 / nr=0 / decimate=1 / interlaced=0 / bluray_compat=0 / constrained_intra=0 / bframes=3 / b_pyramid=2 / b_adapt=1 / b_bias=0 / direct=1 / weightb=1 / open_gop=0 / weightp=2 / keyint=25 / keyint_min=2 / scenecut=40 / intra_refresh=0 / rc_lookahead=25 / rc=abr / mbtree=1 / bitrate=750 / ratetol=1.0 / qcomp=0.60 / qpmin=0 / qpmax=69 / qpstep=4 / ip_ratio=1.40 / aq=1:1.00

Audio
ID                                       : 2
Format                                   : AAC
Format/Info                              : Advanced Audio Codec
Format profile                           : LC
Codec ID                                 : 40
Duration                                 : 1h 40mn
Duration_LastFrame                       : -29ms
Bit rate mode                            : Variable
Bit rate                                 : 82.7 Kbps
Maximum bit rate                         : 128 Kbps
Channel(s)                               : 2 channels
Channel positions                        : Front: L R
Sampling rate                            : 24.0 KHz
Compression mode                         : Lossy
Stream size                              : 59.6 MiB (10%)






http://www13.zippyshare.com/v/14155297/file.html
http://www12.zippyshare.com/v/87833431/file.html
http://www78.zippyshare.com/v/43067729/file.html
http://www40.zippyshare.com/v/16402552/file.html
En Solitario [BRSCR][Castellano][2014]
0 Puntos Score: 0/10
Visitas: 585 Favoritos: 0
0 Comentarios En Solitario [BRSCR][Castellano][2014]
Este post no tiene comentarios. Sea el primero!
Para dejar un comentario Registrate! o.. eres ya usuario? Accede!