Joven y Bonita [BRSCR][Castellano][2013]




Esta película del prestigioso director francés François Ozon destripa la sexualidad de una chica de 17 años (Marine Vatch) a través de cuatro estaciones y cuatro canciones, desde el despertar sexual hasta su primera vez, desde la inmersión en el amor a la búsqueda de su identidad. El film fue presentado en la sección oficial del Festival de Cannes del año 2013.



Título: Joven y bonita
Título original: Jeune et jolie
Dirección: François Ozon
País: Francia
Año: 2013
Fecha de estreno: 07/03/2014
Duración: 95 min
Género: Drama
Calificación: No recomendada para menores de 16 años
Reparto: Géraldine Pailhas, Charlotte Rampling, Frédéric Pierrot, Nathalie Richard, Johan Leysen, Marine Vacth, Fantin Ravat, Laurent Delbecque
Web: www.francois-ozon.com/fr/filmo-jeune-et-jolie
Distribuidora: Golem Distribución
Productora: Mandarin Cinéma

General
Format                                   : MPEG-4
Format profile                           : Base Media
Codec ID                                 : isom
File size                                : 563 MiB
Duration                                 : 1h 33mn
Overall bit rate mode                    : Variable
Overall bit rate                         : 843 Kbps
Writing application                      : Lavf54.63.104

Video
ID                                       : 1
Format                                   : AVC
Format/Info                              : Advanced Video Codec
Format profile                           : [email protected]
Format settings, CABAC                   : Yes
Format settings, ReFrames                : 4 frames
Codec ID                                 : avc1
Codec ID/Info                            : Advanced Video Coding
Duration                                 : 1h 33mn
Bit rate                                 : 750 Kbps
Width                                    : 720 pixels
Height                                   : 384 pixels
Display aspect ratio                     : 1.85:1
Frame rate mode                          : Constant
Frame rate                               : 23.976 fps
Color space                              : YUV
Chroma subsampling                       : 4:2:0
Bit depth                                : 8 bits
Scan type                                : Progressive
Bits/(Pixel*Frame)                       : 0.113
Stream size                              : 504 MiB (90%)
Writing library                          : x264 core 120 r2151 a3f4407
Encoding settings                        : cabac=1 / ref=3 / deblock=1:0:0 / analyse=0x3:0x113 / me=hex / subme=7 / psy=1 / psy_rd=1.00:0.00 / mixed_ref=1 / me_range=16 / chroma_me=1 / trellis=1 / 8x8dct=1 / cqm=0 / deadzone=21,11 / fast_pskip=1 / chroma_qp_offset=-2 / threads=16 / sliced_threads=0 / nr=0 / decimate=1 / interlaced=0 / bluray_compat=0 / constrained_intra=0 / bframes=3 / b_pyramid=2 / b_adapt=1 / b_bias=0 / direct=1 / weightb=1 / open_gop=0 / weightp=2 / keyint=25 / keyint_min=2 / scenecut=40 / intra_refresh=0 / rc_lookahead=25 / rc=abr / mbtree=1 / bitrate=750 / ratetol=1.0 / qcomp=0.60 / qpmin=0 / qpmax=69 / qpstep=4 / ip_ratio=1.40 / aq=1:1.00

Audio
ID                                       : 2
Format                                   : AAC
Format/Info                              : Advanced Audio Codec
Format profile                           : LC
Codec ID                                 : 40
Duration                                 : 1h 33mn
Duration_LastFrame                       : -13ms
Bit rate mode                            : Variable
Bit rate                                 : 83.0 Kbps
Maximum bit rate                         : 128 Kbps
Channel(s)                               : 2 channels
Channel positions                        : Front: L R
Sampling rate                            : 24.0 KHz
Compression mode                         : Lossy
Stream size                              : 55.4 MiB (10%)






http://www44.zippyshare.com/v/72808457/file.html
http://www6.zippyshare.com/v/87656628/file.html
http://www42.zippyshare.com/v/63184366/file.html
Joven y Bonita [BRSCR][Castellano][2013]
10 Puntos Score: 10/10
Visitas: 2934 Favoritos: 4
Ver los usuarios que votaron...
4 Comentarios Joven y Bonita [BRSCR][Castellano][2013]
uhmm haber descargando...  
el audio es cam. gracias igual
links activos, genial gracias
Para dejar un comentario Registrate! o.. eres ya usuario? Accede!