3 Dias Para Matar [TSHQ][VOSE][2014]




Un peligroso espía internacional (Kevin Costner) ha decidido poner fin a su actividad con el objetivo de reconstruir su maltrecha relación con su mujer y su hija (Connie Nielsen y Hailee Steinfeld), a quienes tuvo que abandonar por su trabajo. Pero antes, el espía debe realizar una última misión: cazar al terrorista más buscado del mundo. La misión, ya de por sí arriesgada, se vuelve aún peor cuando su propia familia queda involucrada en ella.



Título: 3 días para matar
Título original: 3 days to kill
Dirección: McG
País: Estados Unidos
Año: 2014
Fecha de estreno: 11/04/2014
Duración: 113 min
Género: Criminal, Drama, Acción
Reparto: Amber Heard, Kevin Costner, Hailee Steinfeld, Connie Nielsen, Richard Sammel, Tómas Lemarquis, Eriq Ebouaney, Bruno Ricci
Distribuidora: TriPictures
Productora: Relativity Media, Wonderland Sound and Vision, EuropaCorp

General
Format                                   : AVI
Format/Info                              : Audio Video Interleave
File size                                : 985 MiB
Duration                                 : 1h 51mn
Overall bit rate                         : 1 241 Kbps
Writing application                      : Lavf52.84.0

Video
ID                                       : 0
Format                                   : MPEG-4 Visual
Format profile                           : [email protected]
Format settings, BVOP                    : No
Format settings, QPel                    : No
Format settings, GMC                     : No warppoints
Format settings, Matrix                  : Default (H.263)
Codec ID                                 : XVID
Codec ID/Hint                            : XviD
Duration                                 : 1h 51mn
Bit rate                                 : 1 100 Kbps
Width                                    : 626 pixels
Height                                   : 298 pixels
Display aspect ratio                     : 2.101
Frame rate                               : 23.976 fps
Color space                              : YUV
Chroma subsampling                       : 4:2:0
Bit depth                                : 8 bits
Scan type                                : Progressive
Compression mode                         : Lossy
Bits/(Pixel*Frame)                       : 0.246
Stream size                              : 874 MiB (89%)
Writing library                          : Lavc52.97.0

Audio
ID                                       : 1
Format                                   : MPEG Audio
Format version                           : Version 1
Format profile                           : Layer 3
Mode                                     : Joint stereo
Mode extension                           : MS Stereo
Codec ID                                 : 55
Codec ID/Hint                            : MP3
Duration                                 : 1h 51mn
Bit rate mode                            : Constant
Bit rate                                 : 128 Kbps
Channel(s)                               : 2 channels
Sampling rate                            : 48.0 KHz
Compression mode                         : Lossy
Stream size                              : 102 MiB (10%)
Alignment                                : Aligned on interleaves
Interleave, duration                     : 24 ms (0.58 video frame)






http://www67.zippyshare.com/v/52068904/file.html
http://www39.zippyshare.com/v/46632286/file.html
http://www71.zippyshare.com/v/44424283/file.html
http://www27.zippyshare.com/v/79208273/file.html
http://www51.zippyshare.com/v/98131503/file.html
3 Dias Para Matar [TSHQ][VOSE][2014]
0 Puntos Score: 0/10
Visitas: 2605 Favoritos: 1
1 Comentarios 3 Dias Para Matar [TSHQ][VOSE][2014]
GRACIAS,pero hay mejor calidad
Para dejar un comentario Registrate! o.. eres ya usuario? Accede!