El Medico [BRSCR][Castellano][2013]




Adaptación de la célebre novela de Noah Gordon. Todo empieza cuando un niño de 9 años llamado Rob J. Cole (Tom Payne) es adoptado por un barbero (Stellan Skarsgard) con el que recorrerá Inglaterra representando espectáculos callejeros. Cuando el barbero fallece, Rob conoce a un médico judío que le presentará a su mentor: el científico persa Ibn Sina (Ben Kingsley). Será entonces cuando Rob decidirá estudiar para ser médico. Pero para ello tendrá que viajar a Persia y simular que es un judío, ya que en su escuela no aceptan a los cristianos.



Título: El médico
Título original: The Physician
Dirección: Philipp Stölzl
País: Alemania
Año: 2013
Fecha de estreno: 25/12/2013
Duración: 150 min
Género: Drama, Histórico, Aventuras
Reparto: Tom Payne, Ben Kingsley, Stellan Skarsgård, Olivier Martinez
Distribuidora: DeA Planeta Home Entertainment
Productora: ARD Degeto Film

General
Format                                   : MPEG-4
Format profile                           : Base Media
Codec ID                                 : isom
File size                                : 929 MiB
Duration                                 : 2h 34mn
Overall bit rate mode                    : Variable
Overall bit rate                         : 840 Kbps
Writing application                      : Lavf54.63.104

Video
ID                                       : 1
Format                                   : AVC
Format/Info                              : Advanced Video Codec
Format profile                           : [email protected]
Format settings, CABAC                   : Yes
Format settings, ReFrames                : 4 frames
Codec ID                                 : avc1
Codec ID/Info                            : Advanced Video Coding
Duration                                 : 2h 34mn
Bit rate                                 : 750 Kbps
Width                                    : 720 pixels
Height                                   : 304 pixels
Display aspect ratio                     : 2.35:1
Frame rate mode                          : Constant
Frame rate                               : 24.000 fps
Color space                              : YUV
Chroma subsampling                       : 4:2:0
Bit depth                                : 8 bits
Scan type                                : Progressive
Bits/(Pixel*Frame)                       : 0.143
Stream size                              : 833 MiB (90%)
Writing library                          : x264 core 120 r2151 a3f4407
Encoding settings                        : cabac=1 / ref=3 / deblock=1:0:0 / analyse=0x3:0x113 / me=hex / subme=7 / psy=1 / psy_rd=1.00:0.00 / mixed_ref=1 / me_range=16 / chroma_me=1 / trellis=1 / 8x8dct=1 / cqm=0 / deadzone=21,11 / fast_pskip=1 / chroma_qp_offset=-2 / threads=16 / sliced_threads=0 / nr=0 / decimate=1 / interlaced=0 / bluray_compat=0 / constrained_intra=0 / bframes=3 / b_pyramid=2 / b_adapt=1 / b_bias=0 / direct=1 / weightb=1 / open_gop=0 / weightp=2 / keyint=25 / keyint_min=2 / scenecut=40 / intra_refresh=0 / rc_lookahead=25 / rc=abr / mbtree=1 / bitrate=750 / ratetol=1.0 / qcomp=0.60 / qpmin=0 / qpmax=69 / qpstep=4 / ip_ratio=1.40 / aq=1:1.00

Audio
ID                                       : 2
Format                                   : AAC
Format/Info                              : Advanced Audio Codec
Format profile                           : LC
Codec ID                                 : 40
Duration                                 : 2h 34mn
Duration_LastFrame                       : -35ms
Bit rate mode                            : Variable
Bit rate                                 : 82.7 Kbps
Maximum bit rate                         : 128 Kbps
Channel(s)                               : 2 channels
Channel positions                        : Front: L R
Sampling rate                            : 24.0 KHz
Compression mode                         : Lossy
Stream size                              : 91.5 MiB (10%)






http://www18.zippyshare.com/v/48937149/file.html
http://www46.zippyshare.com/v/88971336/file.html
http://www73.zippyshare.com/v/18663810/file.html
http://www68.zippyshare.com/v/60098555/file.html
http://www12.zippyshare.com/v/72747779/file.html
El Medico [BRSCR][Castellano][2013]
0 Puntos Score: 0/10
Visitas: 2281 Favoritos: 1
3 Comentarios El Medico [BRSCR][Castellano][2013]
Enlaces caidos
Para dejar un comentario Registrate! o.. eres ya usuario? Accede!