Huff temporada 1 audio latino Hank Azaria

saludos amigos aqui les comparto esta serie de tv quizas algunos no la conozcan y otros tal ves si, esta serie yo la veia aqui en mexico en la madrugada, y hace un tiempo me encontre las unicas dos temporadas que existen ya que la serie fue cancelada,a pesar de eso me decidi a postearla ya que es dificil encontrarla en latino y la verdad esta entretenida la recomiendo, tengo las dos temporadas en latino despues subo la segunda, la primera temporada son en total 13 capitulos de los cuales solo 11 estan en audio latino y los ultimos 2 estan en ingles con su archivo de subtitulo en español,estos ultimos dos no lo encontre en latino asi que los subi en ingles

 

Género: Drama 

Sinopsis: 
Huff es un fantástico trabajo protagonizado por el amable psiquiatra Huffstodt (Hank Azaria), serie creada y escrita por Bob Lowry ?que también ejerce de productor ejecutivo de la serie junto a Scott Winant (ganador de dos premios Emmy. 

Huffstodt es un personaje muy apreciado por sus pacientes, un entusiasta de su trabajo, pero su vida profesional da un giro cuando en una sesión de terapia, un chico de quince años se suicida delante de el. El disparo no sólo acaba con la vida del paciente, sino que también hace saltar por los aires los esquemas personales y profesionales del doctor Huffstodt. 

Capturas




Format                         : MPEG-4
Format profile                 : Base Media
Codec ID                       : isom
File size                      : 229 MiB
Duration                       : 54mn 30s
Overall bit rate mode          : Variable
Overall bit rate               : 586 Kbps
Encoded date                   : UTC 2013-11-01 10:53:06
Tagged date                    : UTC 2013-11-01 10:53:06

Video
ID                             : 1
Format                         : AVC
Format/Info                    : Advanced Video Codec
Format profile                 : [email protected]
Format settings, CABAC         : Yes
Format settings, ReFrames      : 5 frames
Codec ID                       : avc1
Codec ID/Info                  : Advanced Video Coding
Duration                       : 54mn 30s
Bit rate mode                  : Variable
Bit rate                       : 474 Kbps
Maximum bit rate               : 900 Kbps
Width                          : 480 pixels
Height                         : 360 pixels
Display aspect ratio           : 4:3
Frame rate mode                : Constant
Frame rate                     : 23.976 fps
Color space                    : YUV
Chroma subsampling             : 4:2:0
Bit depth                      : 8 bits
Scan type                      : Progressive
Bits/(Pixel*Frame)             : 0.114
Stream size                    : 185 MiB (81%)
Title                          : ›.’|¯
Encoded date                   : UTC 2013-11-01 10:53:06
Tagged date                    : UTC 2013-11-01 10:53:44

Audio
ID                             : 2
Format                         : AAC
Format/Info                    : Advanced Audio Codec
Format profile                 : LC
Codec ID                       : 40
Duration                       : 54mn 30s
Bit rate mode                  : Variable
Bit rate                       : 109 Kbps
Maximum bit rate               : 113 Kbps
Channel(s)                     : 2 channels
Channel positions              : Front: L R
Sampling rate                  : 44.1 KHz
Compression mode               : Lossy
Stream size                    : 42.5 MiB (19%)
Title                          : ›.’|¯
Encoded date                   : UTC 2013-11-01 10:53:36
Tagged date                    : UTC 2013-11-01 10:53:44


Peso por capitulos de 1 al 11 es de 230 a 250 mb ,ultimos dos pesan 100 mb cada uno son los que estan en igles, servidor mega darle la extencion .mp4 a los archivos
Huff temporada 1 audio latino Hank Azaria
55 Puntos Score: 9.2/10
Visitas: 1319 Favoritos: 5
Ver los usuarios que votaron...
5 Comentarios Huff temporada 1 audio latino Hank Azaria
muy buena Brother , agradesco lo compartas tomare tu consejo de arriba jeje /van 10
Excelente aporte hermano, te dejo diez, espero que encuentres los que faltan en latino, y me pregunto si son mas temporadas y si es as?
@jorkvideo @H_R de nada amigos pronto subire la temporada 2
Genio yo la veia en la tele hace a?
Para dejar un comentario Registrate! o.. eres ya usuario? Accede!