Delivery Man [BRSCR][Castellano][2013]




Remake que Ken Scott dirige de su película 'Starbuck' (2011). En ella, el personaje de Vaughn, antiguo donante de esperma, descubre en el peor momento de su vida que es padre nada menos que de 533 hijos, pues en la clínica de fertalidad donde donó su esperma cometerion un error.



Título original: Delivery Man (The Delivery Man)
Año: 2013
Duración: 103 min.
País: Estados Unidos
Director: Ken Scott
Guión: Ken Scott
Fotografía: Eric Alan Edwards
Reparto: Vince Vaughn, Cobie Smulders, Chris Pratt, Britt Robertson, Jack Reynor, Erin Gerasimovich, Bobby Moynihan, Camille Kitt, Ben Bailey, Glenn Fleshler
Productora: DreamWorks SKG
Género: Comedia | Remake

General
Format                                   : Matroska
Format version                           : Version 2
File size                                : 883 MiB
Duration                                 : 1h 44mn
Overall bit rate                         : 1 178 Kbps
Movie name                               : RD
Encoded date                             : UTC 2014-03-06 17:02:08
Writing application                      : mkvmerge v5.7.0 ('The Whirlwind') built on Jul  8 2012 20:08:51
Writing library                          : libebml v1.2.3 + libmatroska v1.3.0

Video
ID                                       : 1
Format                                   : AVC
Format/Info                              : Advanced Video Codec
Format profile                           : [email protected]
Format settings, CABAC                   : Yes
Format settings, ReFrames                : 4 frames
Muxing mode                              : Header stripping
Codec ID                                 : V_MPEG4/ISO/AVC
Duration                                 : 1h 44mn
Bit rate                                 : 985 Kbps
Width                                    : 1 280 pixels
Height                                   : 536 pixels
Display aspect ratio                     : 2.40:1
Frame rate                               : 23.976 fps
Color space                              : YUV
Chroma subsampling                       : 4:2:0
Bit depth                                : 8 bits
Scan type                                : Progressive
Bits/(Pixel*Frame)                       : 0.060
Stream size                              : 721 MiB (82%)
Writing library                          : x264 core 132 r2 76a5c3a
Encoding settings                        : cabac=1 / ref=4 / deblock=1:-1:-1 / analyse=0x3:0x133 / me=umh / subme=9 / psy=1 / psy_rd=1.00:0.15 / mixed_ref=1 / me_range=24 / chroma_me=1 / trellis=2 / 8x8dct=1 / cqm=0 / deadzone=21,11 / fast_pskip=0 / chroma_qp_offset=-3 / threads=36 / lookahead_threads=3 / sliced_threads=0 / nr=0 / decimate=1 / interlaced=0 / bluray_compat=0 / constrained_intra=0 / bframes=3 / b_pyramid=2 / b_adapt=2 / b_bias=0 / direct=3 / weightb=1 / open_gop=0 / weightp=2 / keyint=250 / keyint_min=23 / scenecut=40 / intra_refresh=0 / rc_lookahead=60 / rc=2pass / mbtree=1 / bitrate=985 / ratetol=1.0 / qcomp=0.60 / qpmin=0 / qpmax=69 / qpstep=4 / cplxblur=20.0 / qblur=0.5 / vbv_maxrate=31250 / vbv_bufsize=31250 / nal_hrd=none / ip_ratio=1.40 / aq=1:1.00
Default                                  : Yes
Forced                                   : No
Color primaries                          : BT.709-5, BT.1361, IEC 61966-2-4, SMPTE RP177
Matrix coefficients                      : BT.709-5, BT.1361, IEC 61966-2-4 709, SMPTE RP177

Audio
ID                                       : 2
Format                                   : MPEG Audio
Format version                           : Version 1
Format profile                           : Layer 3
Mode                                     : Joint stereo
Mode extension                           : MS Stereo
Muxing mode                              : Header stripping
Codec ID                                 : A_MPEG/L3
Codec ID/Hint                            : MP3
Duration                                 : 1h 44mn
Bit rate mode                            : Constant
Bit rate                                 : 192 Kbps
Channel(s)                               : 2 channels
Sampling rate                            : 48.0 KHz
Compression mode                         : Lossy
Stream size                              : 144 MiB (16%)
Writing library                          : LAME3.99r
Encoding settings                        : -m j -V 4 -q 3 -lowpass 18.6 -b 192
Language                                 : Spanish
Default                                  : Yes
Forced                                   : Yes






http://www8.zippyshare.com/v/71630605/file.html
http://www16.zippyshare.com/v/75351040/file.html
http://www10.zippyshare.com/v/16487527/file.html
http://www5.zippyshare.com/v/26006566/file.html
http://www76.zippyshare.com/v/50374347/file.html
Delivery Man [BRSCR][Castellano][2013]
0 Puntos Score: 0/10
Visitas: 790 Favoritos: 0
0 Comentarios Delivery Man [BRSCR][Castellano][2013]
Este post no tiene comentarios. Sea el primero!
Para dejar un comentario Registrate! o.. eres ya usuario? Accede!