La Bella y la Bestia [TS][VOSE][2014]





Nueva adaptación del cuento clásico de 'La bella y la bestia' escrito por Gabrielle-Suzanne Barbot de Villeneuve a mediados del siglo XVIII. En esta ocasión son los actores Vincent Cassel y Léa Seydoux quienes encarnan al monstruo y a la adorable princesa, respectivamente. Se trata de una versión que, sin renunciar a la magia, es mucho más adulta que las que se han realizado anteriormente en el cine. ¿Podrán consumar su romance estos dos seres tan diferentes pero igualmente atormentados?



Título: La bella y la bestia
Título original: La belle et la bête
Dirección: Christophe Gans
País: Francia, Alemania
Año: 2014
Fecha de estreno: 14/03/2014
Duración: 112 min
Género: Romance, Thriller, Fantástico
Calificación: No recomendada para menores de 7 años
Reparto: Vincent Cassel, Léa Seydoux, André Dussollier, Eduardo Noriega, Audrey Lamy
Web: www.labelleetlabete-lefilm.com
Distribuidora: DeA Planeta Home Entertainment
Productora: Pathe Productions, Studio Babelsberg, Eskwad

General
Format                                   : AVI
Format/Info                              : Audio Video Interleave
Format profile                           : OpenDML
File size                                : 1.02 GiB
Duration                                 : 1h 43mn
Overall bit rate                         : 1 403 Kbps
Writing application                      : Lavf52.84.0

Video
ID                                       : 0
Format                                   : MPEG-4 Visual
Format profile                           : [email protected]
Format settings, BVOP                    : No
Format settings, QPel                    : No
Format settings, GMC                     : No warppoints
Format settings, Matrix                  : Default (H.263)
Codec ID                                 : XVID
Codec ID/Hint                            : XviD
Duration                                 : 1h 43mn
Bit rate                                 : 1 192 Kbps
Width                                    : 720 pixels
Height                                   : 350 pixels
Display aspect ratio                     : 2.057
Frame rate                               : 29.970 fps
Color space                              : YUV
Chroma subsampling                       : 4:2:0
Bit depth                                : 8 bits
Scan type                                : Progressive
Compression mode                         : Lossy
Bits/(Pixel*Frame)                       : 0.158
Stream size                              : 884 MiB (85%)
Writing library                          : Lavc52.97.0

Audio
ID                                       : 1
Format                                   : MPEG Audio
Format version                           : Version 1
Format profile                           : Layer 3
Mode                                     : Joint stereo
Mode extension                           : MS Stereo
Codec ID                                 : 55
Codec ID/Hint                            : MP3
Duration                                 : 1h 43mn
Bit rate mode                            : Constant
Bit rate                                 : 192 Kbps
Channel(s)                               : 2 channels
Sampling rate                            : 48.0 KHz
Compression mode                         : Lossy
Stream size                              : 142 MiB (14%)
Alignment                                : Aligned on interleaves
Interleave, duration                     : 24 ms (0.72 video frame)
Interleave, preload duration             : 24 ms
Writing library                          : LAME3.99.5






http://www13.zippyshare.com/v/49219256/file.html
http://www58.zippyshare.com/v/82697132/file.html
http://www56.zippyshare.com/v/35986286/file.html
http://www29.zippyshare.com/v/2333894/file.html
http://www33.zippyshare.com/v/18792864/file.html
http://www65.zippyshare.com/v/70289965/file.html
La Bella y la Bestia [TS][VOSE][2014]
0 Puntos Score: 0/10
Visitas: 3502 Favoritos: 4
2 Comentarios La Bella y la Bestia [TS][VOSE][2014]
el 6 link esta caido sera que puedes resubirlo gracias
los link estan malos, arreglalos porfiss
  he buscado mucho esta peli pero no he podido encontrarla
Para dejar un comentario Registrate! o.. eres ya usuario? Accede!