promocion
"Apasionado del HD [channel003]"

Keane - Somewhere Only We Know Blu Ray Demo (MG)

Keane Live recording O2 Arena London (21-07-2007)


Clip Nº 16


* Somewhere Only We Know



Detalles:


General
ID                               : 1 (0x1)
Complete name                    : G:VIDEOSKeane2007Keane - Somewhere Only We Know Blu Ray Demo.m2ts
Format                           : BDAV
Format/Info                      : Blu-ray Video
File size                        : 632 MiB
Duration                         : 4mn 13s
Overall bit rate                 : 21.0 Mbps
Maximum Overall bit rate         : 35.5 Mbps

Video
ID                               : 4113 (0x1011)
Menu ID                          : 1 (0x1)
Format                           : AVC
Format/Info                      : Advanced Video Codec
Format profile                   : [email protected]
Format settings, CABAC           : Yes
Format settings, ReFrames        : 3 frames
Codec ID                         : 27
Duration                         : 4mn 13s
Bit rate mode                    : Variable
Bit rate                         : 18.6 Mbps
Maximum bit rate                 : 20.0 Mbps
Width                            : 1 920 pixels
Height                           : 1 080 pixels
Display aspect ratio             : 16:9
Frame rate                       : 29.970 fps
Standard                         : Component
Color space                      : YUV
Chroma subsampling               : 4:2:0
Bit depth                        : 8 bits
Scan type                        : Progressive
Bits/(Pixel*Frame)               : 0.299
Stream size                      : 561 MiB (89%)
Color primaries                  : BT.709-5, BT.1361, IEC 61966-2-4, SMPTE RP177
Transfer characteristics         : BT.709-5, BT.1361
Matrix coefficients              : BT.709-5, BT.1361, IEC 61966-2-4 709, SMPTE RP177

Audio
ID                               : 4352 (0x1100)
Menu ID                          : 1 (0x1)
Format                           : DTS
Format/Info                      : Digital Theater Systems
Codec ID                         : 130
Duration                         : 4mn 7s
Bit rate mode                    : Constant
Bit rate                         : 1 510 Kbps
Channel(s)                       : 6 channels
Channel positions                : Front: L C R, Side: L R, LFE
Sampling rate                    : 48.0 KHz
Bit depth                        : 24 bits
Compression mode                 : Lossy
Delay relative to video          : 1s 450ms
Stream size                      : 44.5 MiB (7%)
Language                         : English



Screenshots:






Otra opcion:


.jpg]http://2.bp.blogspot.com/-H7Jtcrb-vQw/UyBCVjgiV3I/AAAAAAAAASg/qZAp7OKvc0E/s1600/Keane+-+Somewhere+Only+We+Know+Blu+Ray+Demo.m2ts_thumbs_%5B2014.03.12_06.12.19%5D.jpg








Espero les guste hasta otra oportunidad...
Keane - Somewhere Only We Know Blu Ray Demo (MG)
20 Puntos Score: 10/10
Visitas: 1014 Favoritos: 3
Ver los usuarios que votaron...
12 Comentarios Keane - Somewhere Only We Know Blu Ray Demo (MG)
632 mb por un video de 4.7 segundos vaya un video algo pesadito amigo no me lo llevo porque no llega a tanto mi adoracion por keane pero igual se agradece el compartir y tu tiempo invertido
Cita sureo777: Mostrar
Es la version Blu Ray Original amigo por eso el tama?
Buena rola!!! gracias!! y excelente calidad, prefiero los v?
Es mucho peso, no se si bajarlo
 
Animate mira que el BR completo pesa 40 GBs ahi tienes el himno de la banda en 600 MBs de coleccion !!!
ya lo baje
jaja
no tienes everybody's changing?
Cita kalel89: Mostrar
Claro como te digo tengo el BR completo tratare de darme tiempo esta semana y lo subo en otro post
Muy pesado pero exelente amigo gracias,,, muy buena banda...  
@promocion Muchisimas gracias por estos tremendos aportes! y sobre todo por la calidad! de verdad remarcable.
Si llegases a subir el concierto completo del bluray, por favor mencioname, o si subis mas temas asi separados, saludos y gracias de nuevo.
Para dejar un comentario Registrate! o.. eres ya usuario? Accede!