Philomena [DVDSCR][VOSE][2014]





Irlanda, 1952. Tras quedarse embarazada siendo una adolescente, Philomena (Judi Dench) es internada en el convento de Roscrea para que las monjas puedan reconducir a esa joven descarriada. Cuando el bebé nace, se las monjas se lo arrebatan de las manos y lo envían a Estados Unidos para que entre en el circuito de adopción. Philomena pasará los siguientes 50 años buscando a su hijo, sin éxito. Entonces conocerá a un periodista llamado Martin Sixsmith (Steve Coogan) que, vivamente interesado por su historia, le ayudará a proseguir la búsqueda.



Título: Philomena
Título original: Philomena
Dirección: Stephen Frears
País: Francia, El Reino Unido, Estados Unidos
Año: 2013
Fecha de estreno: 28/02/2014
Duración: 98 min
Género: Drama
Reparto: Judi Dench, Steve Coogan, Michelle Fairley, Mare Winningham, Anna Maxwell Martin, Charles Edwards, Sean Mahon, Cathy Belton, Peter Hermann
Web: www.philomenamovie.com
Distribuidora: Vertigo Films
Productora: BBC Films, Pathe Productions, Baby Cow Productions, Magnolia Mae Films

General
Format                                   : AVI
Format/Info                              : Audio Video Interleave
File size                                : 908 MiB
Duration                                 : 1h 38mn
Overall bit rate                         : 1 295 Kbps
Writing application                      : Lavf52.84.0

Video
ID                                       : 0
Format                                   : MPEG-4 Visual
Format profile                           : [email protected]
Format settings, BVOP                    : No
Format settings, QPel                    : No
Format settings, GMC                     : No warppoints
Format settings, Matrix                  : Default (H.263)
Codec ID                                 : XVID
Codec ID/Hint                            : XviD
Duration                                 : 1h 38mn
Bit rate                                 : 1 154 Kbps
Width                                    : 640 pixels
Height                                   : 342 pixels
Display aspect ratio                     : 1.85:1
Frame rate                               : 23.976 fps
Color space                              : YUV
Chroma subsampling                       : 4:2:0
Bit depth                                : 8 bits
Scan type                                : Progressive
Compression mode                         : Lossy
Bits/(Pixel*Frame)                       : 0.220
Stream size                              : 809 MiB (89%)
Writing library                          : Lavc52.97.0

Audio
ID                                       : 1
Format                                   : MPEG Audio
Format version                           : Version 1
Format profile                           : Layer 3
Mode                                     : Joint stereo
Mode extension                           : MS Stereo
Codec ID                                 : 55
Codec ID/Hint                            : MP3
Duration                                 : 1h 38mn
Bit rate mode                            : Constant
Bit rate                                 : 128 Kbps
Channel(s)                               : 2 channels
Sampling rate                            : 48.0 KHz
Compression mode                         : Lossy
Stream size                              : 89.8 MiB (10%)
Alignment                                : Aligned on interleaves
Interleave, duration                     : 24 ms (0.58 video frame)
Writing library                          : LAME3.98.4






http://www53.zippyshare.com/v/1159471/file.html
http://www34.zippyshare.com/v/56917057/file.html
http://www12.zippyshare.com/v/77229952/file.html
http://www30.zippyshare.com/v/77068991/file.html
http://www16.zippyshare.com/v/28142837/file.html
Philomena [DVDSCR][VOSE][2014]
30 Puntos Score: 10/10
Visitas: 1717 Favoritos: 1
Ver los usuarios que votaron...
4 Comentarios Philomena [DVDSCR][VOSE][2014]
Cita lauchis: Mostrar
muy buen aporte amigo, van puntos
gracias descargando +10 no la encontraba
Para dejar un comentario Registrate! o.. eres ya usuario? Accede!