Philomena [DVDSCR][Castellano][2014]





Irlanda, 1952. Tras quedarse embarazada siendo una adolescente, Philomena (Judi Dench) es internada en el convento de Roscrea para que las monjas puedan reconducir a esa joven descarriada. Cuando el bebé nace, se las monjas se lo arrebatan de las manos y lo envían a Estados Unidos para que entre en el circuito de adopción. Philomena pasará los siguientes 50 años buscando a su hijo, sin éxito. Entonces conocerá a un periodista llamado Martin Sixsmith (Steve Coogan) que, vivamente interesado por su historia, le ayudará a proseguir la búsqueda.



Título: Philomena
Título original: Philomena
Dirección: Stephen Frears
País: Francia, El Reino Unido, Estados Unidos
Año: 2013
Fecha de estreno: 28/02/2014
Duración: 98 min
Género: Drama
Reparto: Judi Dench, Steve Coogan, Michelle Fairley, Mare Winningham, Anna Maxwell Martin, Charles Edwards, Sean Mahon, Cathy Belton, Peter Hermann
Web: www.philomenamovie.com
Distribuidora: Vertigo Films
Productora: BBC Films, Pathe Productions, Baby Cow Productions, Magnolia Mae Films

General
Format                                   : MPEG-4
Format profile                           : Base Media
Codec ID                                 : isom
File size                                : 565 MiB
Duration                                 : 1h 33mn
Overall bit rate mode                    : Variable
Overall bit rate                         : 842 Kbps
Writing application                      : Lavf54.63.104

Video
ID                                       : 1
Format                                   : AVC
Format/Info                              : Advanced Video Codec
Format profile                           : [email protected]
Format settings, CABAC                   : Yes
Format settings, ReFrames                : 4 frames
Codec ID                                 : avc1
Codec ID/Info                            : Advanced Video Coding
Duration                                 : 1h 33mn
Bit rate                                 : 750 Kbps
Width                                    : 720 pixels
Height                                   : 384 pixels
Display aspect ratio                     : 1.85:1
Frame rate mode                          : Constant
Frame rate                               : 25.000 fps
Color space                              : YUV
Chroma subsampling                       : 4:2:0
Bit depth                                : 8 bits
Scan type                                : Progressive
Bits/(Pixel*Frame)                       : 0.109
Stream size                              : 506 MiB (90%)
Writing library                          : x264 core 120 r2151 a3f4407
Encoding settings                        : cabac=1 / ref=3 / deblock=1:0:0 / analyse=0x3:0x113 / me=hex / subme=7 / psy=1 / psy_rd=1.00:0.00 / mixed_ref=1 / me_range=16 / chroma_me=1 / trellis=1 / 8x8dct=1 / cqm=0 / deadzone=21,11 / fast_pskip=1 / chroma_qp_offset=-2 / threads=16 / sliced_threads=0 / nr=0 / decimate=1 / interlaced=0 / bluray_compat=0 / constrained_intra=0 / bframes=3 / b_pyramid=2 / b_adapt=1 / b_bias=0 / direct=1 / weightb=1 / open_gop=0 / weightp=2 / keyint=25 / keyint_min=2 / scenecut=40 / intra_refresh=0 / rc_lookahead=25 / rc=abr / mbtree=1 / bitrate=750 / ratetol=1.0 / qcomp=0.60 / qpmin=0 / qpmax=69 / qpstep=4 / ip_ratio=1.40 / aq=1:1.00

Audio
ID                                       : 2
Format                                   : AAC
Format/Info                              : Advanced Audio Codec
Format profile                           : LC
Codec ID                                 : 40
Duration                                 : 1h 33mn
Duration_LastFrame                       : -21ms
Bit rate mode                            : Variable
Bit rate                                 : 83.3 Kbps
Maximum bit rate                         : 128 Kbps
Channel(s)                               : 2 channels
Channel positions                        : Front: L R
Sampling rate                            : 24.0 KHz
Compression mode                         : Lossy
Stream size                              : 55.9 MiB (10%)






http://www77.zippyshare.com/v/33045847/file.html
http://www73.zippyshare.com/v/40562159/file.html
http://www22.zippyshare.com/v/35067766/file.html
Philomena [DVDSCR][Castellano][2014]
0 Puntos Score: 0/10
Visitas: 646 Favoritos: 0
1 Comentarios Philomena [DVDSCR][Castellano][2014]
la andaba buscando exelente aporte, aun no puedo dejar puntos pero gracias
Para dejar un comentario Registrate! o.. eres ya usuario? Accede!