Paris a Toda Costa [BRSCR][Castellano][2014]





Maya (Reem Kherici) es una joven de origen marroquí que vive en París desde hace más de 20 años. Es una de las actuales chicas de moda y, de hecho, está a punto de convertirse en la primera estilista de la importante casa de moda en la que trabaja. Sin embargo, su fantástica vida cambia de golpe cuando descubre que su permiso de residencia ha expirado y que en 24 horas tiene que volver a Marruecos...



Título: París a toda costa
Título original: Paris à tout prix
Dirección: Reem Kherici
País: Francia
Año: 2013
Fecha de estreno: 28/02/2014
Duración: 95 min
Género: Comedia
Reparto: Reem Kherici, Cécile Cassel, Salim Kechiouche, Stéphane Rousseau, François-Xavier Demaison
Web: www.alimprofilms.com/peliculas/paris-a-toda-costa
Distribuidora: Alimpro Films
Productora: Mandarin Films

General
Format                                   : MPEG-4
Format profile                           : Base Media
Codec ID                                 : isom
File size                                : 562 MiB
Duration                                 : 1h 32mn
Overall bit rate mode                    : Variable
Overall bit rate                         : 846 Kbps

Video
ID                                       : 1
Format                                   : AVC
Format/Info                              : Advanced Video Codec
Format profile                           : [email protected]
Format settings, CABAC                   : Yes
Format settings, ReFrames                : 4 frames
Codec ID                                 : avc1
Codec ID/Info                            : Advanced Video Coding
Duration                                 : 1h 32mn
Bit rate                                 : 750 Kbps
Width                                    : 720 pixels
Height                                   : 304 pixels
Display aspect ratio                     : 2.35:1
Frame rate mode                          : Constant
Frame rate                               : 24.000 fps
Color space                              : YUV
Chroma subsampling                       : 4:2:0
Bit depth                                : 8 bits
Scan type                                : Progressive
Bits/(Pixel*Frame)                       : 0.143
Stream size                              : 501 MiB (89%)
Writing library                          : x264 core 120 r2151 a3f4407
Encoding settings                        : cabac=1 / ref=3 / deblock=1:0:0 / analyse=0x3:0x113 / me=hex / subme=7 / psy=1 / psy_rd=1.00:0.00 / mixed_ref=1 / me_range=16 / chroma_me=1 / trellis=1 / 8x8dct=1 / cqm=0 / deadzone=21,11 / fast_pskip=1 / chroma_qp_offset=-2 / threads=16 / sliced_threads=0 / nr=0 / decimate=1 / interlaced=0 / bluray_compat=0 / constrained_intra=0 / bframes=3 / b_pyramid=2 / b_adapt=1 / b_bias=0 / direct=1 / weightb=1 / open_gop=0 / weightp=2 / keyint=25 / keyint_min=2 / scenecut=40 / intra_refresh=0 / rc_lookahead=25 / rc=abr / mbtree=1 / bitrate=750 / ratetol=1.0 / qcomp=0.60 / qpmin=0 / qpmax=69 / qpstep=4 / ip_ratio=1.40 / aq=1:1.00

Audio
ID                                       : 2
Format                                   : AAC
Format/Info                              : Advanced Audio Codec
Format profile                           : LC
Codec ID                                 : 40
Duration                                 : 1h 32mn
Duration_LastFrame                       : -3ms
Bit rate mode                            : Variable
Bit rate                                 : 87.6 Kbps
Maximum bit rate                         : 128 Kbps
Channel(s)                               : 2 channels
Channel positions                        : Front: L R
Sampling rate                            : 24.0 KHz
Compression mode                         : Lossy
Stream size                              : 57.8 MiB (10%)






http://www66.zippyshare.com/v/42351569/file.html
http://www63.zippyshare.com/v/53435513/file.html
http://www75.zippyshare.com/v/96037940/file.html
Paris a Toda Costa [BRSCR][Castellano][2014]
10 Puntos Score: 10/10
Visitas: 1250 Favoritos: 0
Ver los usuarios que votaron...
0 Comentarios Paris a Toda Costa [BRSCR][Castellano][2014]
Este post no tiene comentarios. Sea el primero!
Para dejar un comentario Registrate! o.. eres ya usuario? Accede!