Home Front [HDRip][VOSE][2013]





Phil Broker (Jason Statham) es un ex agente del Departamento de Justicia de la Casa Blanca que se encuentra sumido en una depresión después de que un error suyo provocara la muerte del hijo de su jefe. Además, acaba de quedarse viudo. Phil decide que lo mejor es retirarse a un pequeño pueblo, lejos de caras conocidas, por el bien de su hija Maddy (Izabela Vidovic), que acaba de cumplir 9 años. Pero cuando Maddy se pelea con un niño en clase y éste resulta ser el hijo de un importante mafioso (James Franco), Phil se ve obligado a regresar a la acción.



Título: Homefront
Título original: Homefront
Dirección: Gary Fleder
País: Estados Unidos
Año: 2013
Fecha de estreno: 27/11/2013
Duración: 100 min
Género: Criminal, Thriller, Acción
Reparto: James Franco, Jason Statham, Kate Bosworth, Winona Ryder, Rachelle Lefevre, Clancy Brown, Frank Grillo, Christa Campbell, Omar Benson Miller, Celeste Star
Web: www.facebook.com/HomeFrontMovie
Distribuidora: Millennium Films
Productora: Open Road Films

General
Format                                   : AVI
Format/Info                              : Audio Video Interleave
File size                                : 986 MiB
Duration                                 : 1h 35mn
Overall bit rate                         : 1 438 Kbps

Video
ID                                       : 0
Format                                   : AVC
Format/Info                              : Advanced Video Codec
Format profile                           : [email protected]
Format settings, CABAC                   : Yes
Format settings, ReFrames                : 2 frames
Codec ID                                 : H264
Duration                                 : 1h 35mn
Bit rate                                 : 1 235 Kbps
Width                                    : 720 pixels
Height                                   : 404 pixels
Display aspect ratio                     : 16:9
Frame rate                               : 23.976 fps
Color space                              : YUV
Chroma subsampling                       : 4:2:0
Bit depth                                : 8 bits
Scan type                                : Progressive
Bits/(Pixel*Frame)                       : 0.177
Stream size                              : 847 MiB (86%)
Writing library                          : x264 core
Color primaries                          : BT.601-6 525, BT.1358 525, BT.1700 NTSC, SMPTE 170M
Transfer characteristics                 : BT.709-5, BT.1361
Matrix coefficients                      : BT.601-6 525, BT.1358 525, BT.1700 NTSC, SMPTE 170M

Audio
ID                                       : 1
Format                                   : AC-3
Format/Info                              : Audio Coding 3
Mode extension                           : CM (complete main)
Format settings, Endianness              : Big
Codec ID                                 : 2000
Duration                                 : 1h 35mn
Bit rate mode                            : Constant
Bit rate                                 : 192 Kbps
Channel(s)                               : 2 channels
Channel positions                        : Front: L R
Sampling rate                            : 48.0 KHz
Bit depth                                : 16 bits
Compression mode                         : Lossy
Stream size                              : 132 MiB (13%)
Alignment                                : Aligned on interleaves
Interleave, duration                     : 32 ms (0.77 video frame)




[/URL]

http://www31.zippyshare.com/v/31567085/file.html
http://www68.zippyshare.com/v/15643039/file.html
http://www50.zippyshare.com/v/32871328/file.html
http://www66.zippyshare.com/v/84331643/file.html
http://www54.zippyshare.com/v/83826368/file.html
Home Front [HDRip][VOSE][2013]
20 Puntos Score: 10/10
Visitas: 1503 Favoritos: 2
Ver los usuarios que votaron...
4 Comentarios Home Front [HDRip][VOSE][2013]
la pelicula esta... de poca madre, 100x100 reco  
gracias ... y que bueno que zipishare ya no pide completar capchas
gracias por el aporte
el ultimo link esta caido saludos
Para dejar un comentario Registrate! o.. eres ya usuario? Accede!