Her [DVDSCR][Castellano][2013]





En un futuro cercano, Theodore (Joaquin Phoenix), un escritor solitario, consigue un nuevo sistema operativo basado en el modelo de la Inteligencia Artificial y diseñado para satisfacer todas las necesidades del usuario. Para sorpresa de Theodore, se crea una relación romántica entre él y la voz femenina de este sistema operativo, a la que bautiza como Samantha (Scarlett Johansson).



Título: Her
Título original: Her
Dirección: Spike Jonze
País: Estados Unidos
Año: 2013
Fecha de estreno: 21/02/2014
Duración: 120 min
Género: Drama, Romance, Ciencia ficción
Reparto: Olivia Wilde, Amy Adams, Rooney Mara, Joaquín Phoenix, Scarlett Johansson, Chris Pratt, Portia Doubleday, Sam Jaeger, Spike Jonze, Bill Hader
Web: www.herthemovie.com
Distribuidora: Vertigo Films
Productora: Annapurna Pictures

General
Format                                   : AVI
Format/Info                              : Audio Video Interleave
File size                                : 1.87 GiB
Duration                                 : 1h 52mn
Overall bit rate                         : 2 378 Kbps

Video
ID                                       : 0
Format                                   : MPEG-4 Visual
Format profile                           : Advanced [email protected]
Format settings, BVOP                    : 2
Format settings, QPel                    : No
Format settings, GMC                     : No warppoints
Format settings, Matrix                  : Default (H.263)
Codec ID                                 : XVID
Codec ID/Hint                            : XviD
Duration                                 : 1h 52mn
Bit rate                                 : 2 174 Kbps
Width                                    : 720 pixels
Height                                   : 384 pixels
Display aspect ratio                     : 1.85:1
Frame rate                               : 29.970 fps
Color space                              : YUV
Chroma subsampling                       : 4:2:0
Bit depth                                : 8 bits
Scan type                                : Progressive
Compression mode                         : Lossy
Bits/(Pixel*Frame)                       : 0.262
Stream size                              : 1.71 GiB (91%)
Writing library                          : XviD 1.2.1 (UTC 2008-12-04)

Audio
ID                                       : 1
Format                                   : MPEG Audio
Format version                           : Version 1
Format profile                           : Layer 3
Mode                                     : Joint stereo
Mode extension                           : MS Stereo
Codec ID                                 : 55
Codec ID/Hint                            : MP3
Duration                                 : 1h 52mn
Bit rate mode                            : Constant
Bit rate                                 : 192 Kbps
Channel(s)                               : 2 channels
Sampling rate                            : 48.0 KHz
Compression mode                         : Lossy
Stream size                              : 155 MiB (8%)
Alignment                                : Aligned on interleaves
Interleave, duration                     : 33 ms (1.00 video frame)
Interleave, preload duration             : 504 ms





[IMG]http://picload.org/image/ladcdid/her.dvdscr.caste.jpg/IMG]

http://www18.zippyshare.com/v/25027697/file.html
http://www38.zippyshare.com/v/17408388/file.html
http://www63.zippyshare.com/v/51120137/file.html
http://www44.zippyshare.com/v/79885313/file.html
http://www40.zippyshare.com/v/48929055/file.html
http://www4.zippyshare.com/v/2374138/file.html
http://www39.zippyshare.com/v/54291369/file.html
http://www14.zippyshare.com/v/86597618/file.html
http://www14.zippyshare.com/v/51945957/file.html
http://www31.zippyshare.com/v/11935107/file.html
Her [DVDSCR][Castellano][2013]
0 Puntos Score: 0/10
Visitas: 978 Favoritos: 1
0 Comentarios Her [DVDSCR][Castellano][2013]
Este post no tiene comentarios. Sea el primero!
Para dejar un comentario Registrate! o.. eres ya usuario? Accede!