Frozen [HDR 720p][Latino][2013]




Cuando una profecía condena a un reino a un invierno eterno, Anna (con la voz original de Kristen Bell), una joven optimista, se une a un temerario montañero llamado Kristoff y a su compinche el reno Sven. Juntos emprenden un viaje épico en busca de Elsa, hermana de Anna y Reina de las Nieves, para poner fin al gélido hechizo. Adaptación del cuento 'La reina de las nieves'.



Título: Frozen, el reino de hielo
Título original: Frozen
Dirección: Chris Buck
País: Estados Unidos
Año: 2013
Fecha de estreno: 29/11/2013
Duración: 108 min
Género: Familiar, Animación, Aventuras
Calificación: Apta para todos los públicos
Reparto: Kristen Bell, Idina Menzel, Josh Gad, Alan Tudyk, Santino Fontana, Chris Williams
Distribuidora: Walt Disney Pictures
Productora: Walt Disney Animation Studios

General
Format                                   : Matroska
Format version                           : Version 4 / Version 2
File size                                : 969 MiB
Duration                                 : 1h 42mn
Overall bit rate                         : 1 326 Kbps
Encoded date                             : UTC 2014-03-01 00:00:49

Video
ID                                       : 1
Format                                   : AVC
Format/Info                              : Advanced Video Codec
Format profile                           : [email protected]
Format settings, CABAC                   : Yes
Format settings, ReFrames                : 4 frames
Codec ID                                 : V_MPEG4/ISO/AVC
Duration                                 : 1h 42mn
Bit rate                                 : 1 004 Kbps
Width                                    : 1 280 pixels
Height                                   : 568 pixels
Display aspect ratio                     : 2.25:1
Frame rate                               : 23.976 fps
Color space                              : YUV
Chroma subsampling                       : 4:2:0
Bit depth                                : 8 bits
Scan type                                : Progressive
Bits/(Pixel*Frame)                       : 0.058
Stream size                              : 716 MiB (74%)
Writing library                          : x264 core 132 r2 76a5c3a
Encoding settings                        : cabac=1 / ref=4 / deblock=1:-1:-1 / analyse=0x3:0x133 / me=umh / subme=9 / psy=1 / psy_rd=1.00:0.15 / mixed_ref=1 / me_range=24 / chroma_me=1 / trellis=2 / 8x8dct=1 / cqm=0 / deadzone=21,11 / fast_pskip=0 / chroma_qp_offset=-3 / threads=36 / lookahead_threads=3 / sliced_threads=0 / nr=0 / decimate=1 / interlaced=0 / bluray_compat=0 / constrained_intra=0 / bframes=3 / b_pyramid=2 / b_adapt=2 / b_bias=0 / direct=3 / weightb=1 / open_gop=0 / weightp=2 / keyint=250 / keyint_min=23 / scenecut=40 / intra_refresh=0 / rc_lookahead=60 / rc=2pass / mbtree=1 / bitrate=1004 / ratetol=1.0 / qcomp=0.60 / qpmin=0 / qpmax=69 / qpstep=4 / cplxblur=20.0 / qblur=0.5 / vbv_maxrate=31250 / vbv_bufsize=31250 / nal_hrd=none / ip_ratio=1.40 / aq=1:1.00
Default                                  : Yes
Forced                                   : No
Color primaries                          : BT.709-5, BT.1361, IEC 61966-2-4, SMPTE RP177
Matrix coefficients                      : BT.709-5, BT.1361, IEC 61966-2-4 709, SMPTE RP177

Audio
ID                                       : 2
Format                                   : MPEG Audio
Format version                           : Version 1
Format profile                           : Layer 3
Mode                                     : Joint stereo
Mode extension                           : MS Stereo
Codec ID                                 : A_MPEG/L3
Codec ID/Hint                            : MP3
Duration                                 : 1h 42mn
Bit rate mode                            : Constant
Bit rate                                 : 320 Kbps
Channel(s)                               : 2 channels
Sampling rate                            : 44.1 KHz
Compression mode                         : Lossy
Stream size                              : 234 MiB (24%)
Writing library                          : LAME3.98.2
Default                                  : Yes
Forced                                   : No







http://www78.zippyshare.com/v/59452346/file.html
http://www15.zippyshare.com/v/7963143/file.html
http://www10.zippyshare.com/v/57142860/file.html
http://www30.zippyshare.com/v/78059258/file.html
http://www63.zippyshare.com/v/652471/file.html
Frozen [HDR 720p][Latino][2013]
8 Puntos Score: 4/10
Visitas: 3341 Favoritos: 4
Ver los usuarios que votaron...
8 Comentarios Frozen [HDR 720p][Latino][2013]
Por favor editar el t?
jajajaja forzen       no seria frozen buen aporte amigo    
Cita p3jejito: Mostrar
Ripeo del High Definition... HDR = HDRip
Cita xskebix: Mostrar
Estas mal HDR significa: High dynamic range no puedes poner HDR si es HDrip  
Cita p3jejito: Mostrar

mmm veo que lees bastante wikipedia... si te das cuenta por tus amplios conocimientos en google "High dynamic range" es una tecnica para FOTOGRAFIAS y aqui estamos hablando de videos... o en este caso peliculas asi que POR DIOS si quieres escribir simplemente por escribir y tener otro comentario me parece tonto...
Cita xskebix: Mostrar
jajajajaja xD no me refiero a eso pero HDRip no se puede escribir como HDR   y si hay videos HDR animal  
Gracias espero la disfruten mis enanos!!!!
Para dejar un comentario Registrate! o.. eres ya usuario? Accede!