El Poder del Dinero [BRSCR][Castellano][2013]





Los dos más poderosos magnates tecnológicos del mundo (Harrison Ford y Gary Oldman) son rivales acérrimos que comparten un oscuro pasado y no se detendrán ante nada con tal de destruirse el uno al otro. Un joven prometedor, Adam Cassidy (Liam Hemsworth), seducido por el mundo de riqueza y poder ilimitado que se abre delante de él, se verá atrapado entre ellos e inmerso en un arriesgado juego de espionaje corporativo. Pero cuando Adam empieza a darse cuenta de que su vida corre peligro, ya está metido de lleno en una telaraña de la que ya no podrá escapar...



Título: El poder del dinero
Título original: Paranoia
Dirección: Robert Luketic
País: El Reino Unido
Año: 2013
Fecha de estreno: 28/02/2014
Duración: 106 min
Género: Drama, Thriller
Reparto: Amber Heard, Harrison Ford, Liam Hemsworth, Gary Oldman, Josh Holloway, Embeth Davidtz, Richard Dreyfuss, Julian McMahon, Lucas Till, Angela Sarafyan
Distribuidora: eOne Films
Productora: Gaumont, Kintop Pictures, EMJAG Productions, Demarest Films

General
Format                                   : AVI
Format/Info                              : Audio Video Interleave
File size                                : 1.60 GiB
Duration                                 : 1h 46mn
Overall bit rate                         : 2 155 Kbps

Video
ID                                       : 0
Format                                   : MPEG-4 Visual
Format profile                           : Advanced [email protected]
Format settings, BVOP                    : 2
Format settings, QPel                    : No
Format settings, GMC                     : No warppoints
Format settings, Matrix                  : Default (H.263)
Codec ID                                 : XVID
Codec ID/Hint                            : XviD
Duration                                 : 1h 46mn
Bit rate                                 : 1 953 Kbps
Width                                    : 720 pixels
Height                                   : 304 pixels
Display aspect ratio                     : 2.35:1
Frame rate                               : 23.976 fps
Color space                              : YUV
Chroma subsampling                       : 4:2:0
Bit depth                                : 8 bits
Scan type                                : Progressive
Compression mode                         : Lossy
Bits/(Pixel*Frame)                       : 0.372
Stream size                              : 1.45 GiB (91%)
Writing library                          : XviD 1.2.1 (UTC 2008-12-04)

Audio
ID                                       : 1
Format                                   : MPEG Audio
Format version                           : Version 1
Format profile                           : Layer 3
Mode                                     : Joint stereo
Mode extension                           : MS Stereo
Codec ID                                 : 55
Codec ID/Hint                            : MP3
Duration                                 : 1h 46mn
Bit rate mode                            : Constant
Bit rate                                 : 192 Kbps
Channel(s)                               : 2 channels
Sampling rate                            : 48.0 KHz
Compression mode                         : Lossy
Stream size                              : 146 MiB (9%)
Alignment                                : Aligned on interleaves
Interleave, duration                     : 42 ms (1.00 video frame)
Interleave, preload duration             : 504 ms
Writing library                          : LAME3.99r
Encoding settings                        : -m j -V 4 -q 3 -lowpass 18.6 -b 192







http://www26.zippyshare.com/v/50374924/file.html
http://www31.zippyshare.com/v/15074946/file.html
http://www19.zippyshare.com/v/57271164/file.html
http://www75.zippyshare.com/v/28412273/file.html
http://www77.zippyshare.com/v/26453236/file.html
http://www18.zippyshare.com/v/48954442/file.html
http://www35.zippyshare.com/v/60333648/file.html
http://www29.zippyshare.com/v/47599040/file.html
http://www3.zippyshare.com/v/50047599/file.html
El Poder del Dinero [BRSCR][Castellano][2013]
0 Puntos Score: 0/10
Visitas: 1202 Favoritos: 2
0 Comentarios El Poder del Dinero [BRSCR][Castellano][2013]
Este post no tiene comentarios. Sea el primero!
Para dejar un comentario Registrate! o.. eres ya usuario? Accede!