El Medallon Perdido [HDR][VOSE][2013]




La historia de Billy Stone y Allie (Billy Unger y Sammi Hanratty) comienza cuando los niños del orfanato le piden a Daniel Anderson (Alex Kendrick) que les relate un cuento lleno de aventuras y emoción. Aunque al principio no le parece buena idea, no puede negarse a los pequeños. Billy y Allie son dos amigos inseparables de 13 años que descubren un medallón abandonado que les transporta hasta una isla alejada de todo en una época pasada. Juntos tendrán que enfrentarse a peligros que nunca habían imaginado y Billy entregará el medallón al malvado Cobra (Mark Dacascos) para poder salvar la vida a su compañera.



Título: Diana
Título original: Diana
Dirección: Oliver Hirschbiegel
País: Francia, El Reino Unido, Bélgica
Año: 2013
Fecha de estreno: 13/12/2013
Duración: 113 min
Género: Drama, Biográfico
Calificación: Apta para todos los públicos
Reparto: Naomi Watts, Naveen Andrews, Douglas Hodge, Charles Edwards, Lee Asquith-Coe
Web: DIANA The Movie | Official Website
Distribuidora: eOne Films
Productora: Film i Väst, Ecosse Films, Le Pacte, Scope Pictures, Filmgate

General
Format                                   : AVI
Format/Info                              : Audio Video Interleave
File size                                : 959 MiB
Duration                                 : 1h 38mn
Overall bit rate                         : 1 366 Kbps

Video
ID                                       : 0
Format                                   : MPEG-4 Visual
Format profile                           : [email protected]
Format settings, BVOP                    : No
Format settings, QPel                    : No
Format settings, GMC                     : No warppoints
Format settings, Matrix                  : Default (H.263)
Codec ID                                 : XVID
Codec ID/Hint                            : XviD
Duration                                 : 1h 38mn
Bit rate                                 : 1 225 Kbps
Width                                    : 640 pixels
Height                                   : 272 pixels
Display aspect ratio                     : 2.35:1
Frame rate                               : 23.976 fps
Color space                              : YUV
Chroma subsampling                       : 4:2:0
Bit depth                                : 8 bits
Scan type                                : Progressive
Compression mode                         : Lossy
Bits/(Pixel*Frame)                       : 0.294
Stream size                              : 860 MiB (90%)
Writing library                          : Lavc52.97.0

Audio
ID                                       : 1
Format                                   : MPEG Audio
Format version                           : Version 1
Format profile                           : Layer 3
Codec ID                                 : 55
Codec ID/Hint                            : MP3
Duration                                 : 1h 38mn
Bit rate mode                            : Constant
Bit rate                                 : 128 Kbps
Channel(s)                               : 2 channels
Sampling rate                            : 48.0 KHz
Compression mode                         : Lossy
Stream size                              : 89.9 MiB (9%)
Alignment                                : Aligned on interleaves
Interleave, duration                     : 24 ms (0.58 video frame)
Interleave, preload duration             : 24 ms
Writing library                          : LAME3.99r
Encoding settings                        : -m s -V 4 -q 3 -lowpass 17 -b 128







http://www73.zippyshare.com/v/87062797/file.html
http://www31.zippyshare.com/v/93670554/file.html
http://www54.zippyshare.com/v/235962/file.html
http://www60.zippyshare.com/v/4125610/file.html
http://www33.zippyshare.com/v/38985927/file.html
El Medallon Perdido [HDR][VOSE][2013]
0 Puntos Score: 0/10
Visitas: 1858 Favoritos: 2
3 Comentarios El Medallon Perdido [HDR][VOSE][2013]
mmm no corresponde la sinopsis con el titulo que posteaste?
Saludos @xskebix, excelente aporte con las peli...pero una pregunta. Cual pelicula es Diana o El Medallon Perdido? Espero sea El Medallon Perdido que es la que busco. Gracias  
Cita Encyta: Mostrar
el medallon perdido xD ya acomodo la sipnosis
Para dejar un comentario Registrate! o.. eres ya usuario? Accede!