El Medallon Perdido [BRSCR][Castellano][2013]




La historia de Billy Stone y Allie (Billy Unger y Sammi Hanratty) comienza cuando los niños del orfanato le piden a Daniel Anderson (Alex Kendrick) que les relate un cuento lleno de aventuras y emoción. Aunque al principio no le parece buena idea, no puede negarse a los pequeños. Billy y Allie son dos amigos inseparables de 13 años que descubren un medallón abandonado que les transporta hasta una isla alejada de todo en una época pasada. Juntos tendrán que enfrentarse a peligros que nunca habían imaginado y Billy entregará el medallón al malvado Cobra (Mark Dacascos) para poder salvar la vida a su compañera.




Título: Diana

Título original: Diana

Dirección: Oliver Hirschbiegel

País: Francia, El Reino Unido, Bélgica

Año: 2013

Fecha de estreno: 13/12/2013

Duración: 113 min

Género: Drama, Biográfico

Calificación: Apta para todos los públicos

Reparto: Naomi Watts, Naveen Andrews, Douglas Hodge, Charles Edwards, Lee Asquith-Coe


Distribuidora: eOne Films

Productora: Film i Väst, Ecosse Films, Le Pacte, Scope Pictures, Filmgate


General

Format                                   : AVI

Format/Info                              : Audio Video Interleave

File size                                : 1.50 GiB

Duration                                 : 1h 38mn

Overall bit rate                         : 2 189 Kbps


Video

ID                                       : 0

Format                                   : MPEG-4 Visual

Format profile                           : Advanced [email protected]

Format settings, BVOP                    : 2

Format settings, QPel                    : No

Format settings, GMC                     : No warppoints

Format settings, Matrix                  : Default (H.263)

Codec ID                                 : XVID

Codec ID/Hint                            : XviD

Duration                                 : 1h 38mn

Bit rate                                 : 1 987 Kbps

Width                                    : 720 pixels

Height                                   : 304 pixels

Display aspect ratio                     : 2.35:1

Frame rate                               : 23.976 fps

Color space                              : YUV

Chroma subsampling                       : 4:2:0

Bit depth                                : 8 bits

Scan type                                : Progressive

Compression mode                         : Lossy

Bits/(Pixel*Frame)                       : 0.379

Stream size                              : 1.36 GiB (91%)

Writing library                          : XviD 1.2.1 (UTC 2008-12-04)


Audio

ID                                       : 1

Format                                   : MPEG Audio

Format version                           : Version 1

Format profile                           : Layer 3

Mode                                     : Joint stereo

Mode extension                           : MS Stereo

Codec ID                                 : 55

Codec ID/Hint                            : MP3

Duration                                 : 1h 38mn

Bit rate mode                            : Constant

Bit rate                                 : 192 Kbps

Channel(s)                               : 2 channels

Sampling rate                            : 48.0 KHz

Compression mode                         : Lossy

Stream size                              : 135 MiB (9%)

Alignment                                : Aligned on interleaves

Interleave, duration                     : 42 ms (1.00 video frame)

Interleave, preload duration             : 504 ms

Writing library                          : LAME3.99r

Encoding settings                        : -m j -V 4 -q 3 -lowpass 18.6 -b 192













El Medallon Perdido [BRSCR][Castellano][2013]
0 Puntos Score: 0/10
Visitas: 1547 Favoritos: 0
1 Comentarios El Medallon Perdido [BRSCR][Castellano][2013]
muy buena descargando..
Para dejar un comentario Registrate! o.. eres ya usuario? Accede!