The Walking Dead 04x11 Hd 720 Ligero Sub Amarillo







Tras los desvastadores acontecimientos del ultimo capitulo, Rick y al grupo todavía se tambalean por haber perdido su casa, su familia y sus amigos. Con la destrucción de la prisión, el grupo de sobrevivientes se rompió y fueron enviados por caminos diferentes, sin saber el destino de los demás. Lo que era una vida difícil detrás de vallas y muros ahora es mucho más peligrosa y delicada, ya que estarán expuestos a nuevos peligros, nuevos enemigos y desgarradoras elecciones. Su fe será puesta a prueba incansablemente - Una fe que romperá a algunos de ellos y redimirá a otros







Titulo: The Walking Dead 4x11



Idioma: Ingles
Subtitulos: Español Latino Amarillos (Pegados) 
Formato: MP4 Servidor: Shared 
Tamaño: 484 MB
Vídeo: Mp4 | 720X404| HDTV
Audio: 2 canales
Links: Rafadeth
Duración: 43m:02s


Mira o bajate el anterior aqui 



The Walking Dead 04x10







Nota: Se puede ver online 










Format                                   : MPEG-4

Format profile                           : Base Media / Version 2

Codec ID                                 : mp42

File size                                : 484 MiB

Duration                                 : 43mn 2s

Overall bit rate mode                    : Variable

Overall bit rate                         : 1 533 Kbps

Writing application                      : mp4creator 1.6.1d

Video

ID                                       : 1

Format                                   : AVC

Format/Info                              : Advanced Video Codec

Format profile                           : [email protected]

Format settings, CABAC                   : No

Format settings, ReFrames                : 1 frame

Codec ID                                 : avc1

Codec ID/Info                            : Advanced Video Coding

Duration                                 : 43mn 2s

Bit rate mode                            : Variable

Bit rate                                 : 1 405 Kbps

Width                                    : 720 pixels

Height                                   : 416 pixels

Original height                          : 404 pixels

Display aspect ratio                     : 1.731

Original display aspect ratio            : 16:9

Frame rate mode                          : Variable

Frame rate                               : 23.976 fps

Minimum frame rate                       : 23.974 fps

Maximum frame rate                       : 23.981 fps

Color space                              : YUV

Chroma subsampling                       : 4:2:0

Bit depth                                : 8 bits

Scan type                                : Progressive

Bits/(Pixel*Frame)                       : 0.196

Stream size                              : 432 MiB (92%)

Audio

ID                                       : 2

Format                                   : AAC

Format/Info                              : Advanced Audio Codec

Format profile                           : LC

Codec ID                                 : 40

Duration                                 : 43mn 0s

Source duration                          : 43mn 1s

Bit rate mode                            : Variable

Bit rate                                 : 126 Kbps

Maximum bit rate                         : 198 Kbps

Channel count                            : 2 channels

Channel positions                        : Front: L R

Sampling rate                            : 44.1 KHz

Compression mode                         : Lossy

Stream size                              : 38.6 MiB (8%)

Source stream size                       : 38.6 MiB (8%)
















The Walking Dead 04x11 Hd 720 Ligero Sub Amarillo
45 Puntos Score: 9/10
Visitas: 2426 Favoritos: 6
Ver los usuarios que votaron...
3 Comentarios The Walking Dead 04x11 Hd 720 Ligero Sub Amarillo
muchas gracias por el aporte, saludos
Muchas gracias.
Para dejar un comentario Registrate! o.. eres ya usuario? Accede!