Antz (1998) dual audio esp/ing MEGA





General

Complete name                            : Antz
Format                                   : Matroska
Format version                           : Version 2
File size                                : 1.23 GiB
Duration                                 : 1h 22mn
Overall bit rate                         : 2 142 Kbps
Movie name                               : antz.Title1.DVDRip
Encoded date                             : UTC 2014-02-19 20:27:20
Writing application                      : DVDFab
Writing library                          : libebml v0.7.8 + libmatroska v0.8.1

Video
ID                                       : 1
Format                                   : AVC
Format/Info                              : Advanced Video Codec
Format profile                           : [email protected]
Format settings, CABAC                   : Yes
Format settings, ReFrames                : 2 frames
Codec ID                                 : V_MPEG4/ISO/AVC
Duration                                 : 1h 22mn
Bit rate                                 : 1 012 Kbps
Width                                    : 720 pixels
Height                                   : 406 pixels
Display aspect ratio                     : 16:9
Frame rate mode                          : Constant
Frame rate                               : 23.976 fps
Color space                              : YUV
Chroma subsampling                       : 4:2:0
Bit depth                                : 8 bits
Scan type                                : Progressive
Bits/(Pixel*Frame)                       : 0.144
Stream size                              : 597 MiB (47%)
Writing library                          : x264 core
Default                                  : Yes
Forced                                   : No
Color primaries                          : BT.601 NTSC
Transfer characteristics                 : BT.709
Matrix coefficients                      : BT.601

Audio #1 English
ID                                       : 2
Format                                   : AC-3
Format/Info                              : Audio Coding 3
Mode extension                           : CM (complete main)
Format settings, Endianness              : Big
Codec ID                                 : A_AC3
Duration                                 : 1h 22mn
Bit rate mode                            : Constant
Bit rate                                 : 448 Kbps
Channel(s)                               : 6 channels
Channel positions                        : Front: L C R, Side: L R, LFE
Sampling rate                            : 48.0 KHz
Bit depth                                : 16 bits
Compression mode                         : Lossy
Stream size                              : 264 MiB (21%)
Default                                  : Yes
Forced                                   : No

Audio #2 Español (latino)
ID                                       : 3
Format                                   : AC-3
Format/Info                              : Audio Coding 3
Mode extension                           : CM (complete main)
Format settings, Endianness              : Big
Codec ID                                 : A_AC3
Duration                                 : 1h 22mn
Bit rate mode                            : Constant
Bit rate                                 : 448 Kbps
Channel(s)                               : 6 channels
Channel positions                        : Front: L C R, Side: L R, LFE
Sampling rate                            : 48.0 KHz
Bit depth                                : 16 bits
Compression mode                         : Lossy
Stream size                              : 264 MiB (21%)
Default                                  : No
Forced                                   : No

Audio #3 English (comentario)
ID                                       : 4
Format                                   : AC-3
Format/Info                              : Audio Coding 3
Mode extension                           : CM (complete main)
Format settings, Endianness              : Big
Codec ID                                 : A_AC3
Duration                                 : 1h 22mn
Bit rate mode                            : Constant
Bit rate                                 : 192 Kbps
Channel(s)                               : 2 channels
Channel positions                        : Front: L R
Sampling rate                            : 48.0 KHz
Bit depth                                : 16 bits
Compression mode                         : Lossy
Stream size                              : 113 MiB (9%)
Default                                  : No
Forced                                   : No



Antz (1998) dual audio esp/ing MEGA
15 Puntos Score: 7.5/10
Visitas: 2741 Favoritos: 1
Ver los usuarios que votaron...
10 Comentarios Antz (1998) dual audio esp/ing MEGA
Bienvenido a Identi
Hola amigo. Es audio latino??? O castellano???
@bonanott:  lo siento, s?
buen comienzo que buen aporte seguire espeando los proximos aportes  
Cita miguelakag: Mostrar
Amigo me pasa los links por mp?. porfa es que en mi chromebook no se instala el jdoenloader. gracias!
Lo que ves es lo que obtienes. Gracias por entender
gracias por el aporte
Para dejar un comentario Registrate! o.. eres ya usuario? Accede!