Psicosis 4 [Psycho] 4 El comienzo Dvd rip latino



Saludos aqui les dejo el dvdrip latino a peticion de varios que no quisieron descargar el dvd full


Anthony Perkins,Henry Thomas y Olivia Hussets protagonizan esta terrorifica precuela del gran clasico de hitchcock, Un aparentemente reabilitado norman participa en un programa de radio nocturno donde la locutora le anima a que comparta su opinion sobre el matricidio,el homicidio de una madre por su propio hijo, reviviendo su juventud Norman cuenta sus problemas como joven viviendo con su madre esquizofrenica y viuda, Estas memorias son algo mas que profundos recuerdos del pasado, amenazan con avivar su impulso asesino 


Capturas 


                
Format                         : AVI
Format/Info                    : Audio Video Interleave
File size                      : 800 MiB
Duration                       : 1h 32mn
Overall bit rate               : 1 213 Kbps
Writing application            : VirtualDubMod 1.5.4.1 (build 2178/release)
Writing library                : VirtualDubMod build 2178/release

Video
ID                             : 0
Format                         : MPEG-4 Visual
Format profile                 : Advanced [email protected]
Format settings, BVOP          : Yes
Format settings, QPel          : No
Format settings, GMC           : No warppoints
Format settings, Matrix        : Custom
Codec ID                       : XVID
Codec ID/Hint                  : XviD
Duration                       : 1h 32mn
Bit rate                       : 1 076 Kbps
Width                          : 640 pixels
Height                         : 480 pixels
Display aspect ratio           : 4:3
Frame rate                     : 29.970 fps
Color space                    : YUV
Chroma subsampling             : 4:2:0
Bit depth                      : 8 bits
Scan type                      : Progressive
Compression mode               : Lossy
Bits/(Pixel*Frame)             : 0.117
Stream size                    : 709 MiB (89%)
Writing library                : XviD 64

Audio
ID                             : 1
Format                         : MPEG Audio
Format version                 : Version 1
Format profile                 : Layer 3
Mode                           : Joint stereo
Mode extension                 : MS Stereo
Codec ID                       : 55
Codec ID/Hint                  : MP3
Duration                       : 1h 32mn
Bit rate mode                  : Constant
Bit rate                       : 128 Kbps
Channel(s)                     : 2 channels
Sampling rate                  : 48.0 KHz
Compression mode               : Lossy
Stream size                    : 84.4 MiB (11%)
Alignment                      : Aligned on interleaves
Interleave, duration           : 67 ms (2.00 video frames)
Interleave, preload duration   : 504 ms
Writing library                : LAME3.98r
Encoding settings              : -m j -V 4 -q 2 -lowpass 17 -b 128
Language                       : Espanol



Psicosis 4 [Psycho] 4 El comienzo Dvd rip latino
26 Puntos Score: 6.5/10
Visitas: 1373 Favoritos: 4
Ver los usuarios que votaron...
10 Comentarios Psicosis 4 [Psycho] 4 El comienzo Dvd rip latino
Excelente aporte, hoy ya no puedo dar m?
gracias campeon  
vamos a bajarla a ver que tal. saludos y gracias
+5 (no tengo m?
Listo ahora si te dejo los puntos... muchas gracias nuevamente!!
HERMANO NO ME CARGA EN JDOUNLOADER???????
@davenger no te entiendo los links estan abiertos, ya probe y si cargan prueba directamente de la pagina si no puedes
se ve interesante, pero no he visto las anteriores por casualidad tendras la saga en dvdrip?
Gracias por tu Aporte y tu Tiempo!
Para dejar un comentario Registrate! o.. eres ya usuario? Accede!