The Doors Live At the bowl 68 Shared




Este concierto, considerado como el mejor espectáculo de la banda capturado en video, ha sido reconstruido usando los negativos originales de cámara. El audio ha sido mezclado y remasterizado a partir de multi-pistas originales  por el ingeniero del grupo, Bruce Botnick.


The Doors Live At The Bowl '68 también incluiye tres temas inéditos de la actuación, ya que no fueron liberados en el pasado debido a problemas técnicos con la grabación. Esos temas son "Hello, I love you", "The WASP (Texas Radio And The Big Beat)" y "Spanish Caravan ".








THE DOORS "Live at The Bowl '68" (DVD 2012)




1. Show Start/Intro 


2. When The Music's Over


3. Alabama Song (Whisky Bar)


4. Back Door Man 


5. Five To One 


6. Back Door Man (Reprise) 


7. The WASP (Texas Radio And The Big Beat)


8. Hello, I Love You 


9. Moonlight Drive 


10. Horse Latitudes 


11. A Little Game 


12. The Hill Dwellers 


13. Spanish Caravan 


14. Hey, What Would You Guys Like To Hear? 


15. Wake Up! 


16. Light My Fire (Segue) 


17. Light My Fire 


18. The Unknown Soldier 


19. The End (Segue) 


20. The End 






Format                                   : AVI
Format/Info                              : Audio Video Interleave
File size                                : 700 MiB
Duration                                 : 1h 11mn
Overall bit rate mode                    : Variable
Overall bit rate                         : 1 376 Kbps
Writing application                      : VirtualDubMod 1.5.10.2 (build 2540/release)
Writing library                          : VirtualDubMod build 2540/release

Video
ID                                       : 0
Format                                   : MPEG-4 Visual
Format profile                           : Advanced [email protected]
Format settings, BVOP                    : 1
Format settings, QPel                    : No
Format settings, GMC                     : No warppoints
Format settings, Matrix                  : Default (H.263)
Codec ID                                 : XVID
Codec ID/Hint                            : XviD
Duration                                 : 1h 11mn
Bit rate                                 : 1 240 Kbps
Width                                    : 640 pixels
Height                                   : 352 pixels
Display aspect ratio                     : 16:9
Frame rate                               : 29.970 fps
Color space                              : YUV
Chroma subsampling                       : 4:2:0
Bit depth                                : 8 bits
Scan type                                : Progressive
Compression mode                         : Lossy
Bits/(Pixel*Frame)                       : 0.184
Stream size                              : 630 MiB (90%)
Writing library                          : XviD 1.2.1 (UTC 2008-12-04)

Audio
ID                                       : 1
Format                                   : MPEG Audio
Format version                           : Version 1
Format profile                           : Layer 3
Mode                                     : Joint stereo
Mode extension                           : MS Stereo
Codec ID                                 : 55
Codec ID/Hint                            : MP3
Duration                                 : 1h 11mn
Bit rate mode                            : Variable
Bit rate                                 : 128 Kbps
Channel count                            : 2 channels
Sampling rate                            : 48.0 KHz
Compression mode                         : Lossy
Stream size                              : 62.1 MiB (9%)
Alignment                                : Aligned on interleaves
Interleave, duration                     : 24 ms (0.72 video frame)
Interleave, preload duration             : 150 ms
Writing library                          : LAME3.98r
Encoding settings                        : -m j -V 4 -q 2 -lowpass 17 --abr 128

The Doors Live At the bowl 68 Shared
5 Puntos Score: 5/10
Visitas: 979 Favoritos: 0
Ver los usuarios que votaron...
2 Comentarios The Doors Live At the bowl 68 Shared
buen aporte no termine de ver el post pero se agradece  
Para dejar un comentario Registrate! o.. eres ya usuario? Accede!