The Walking Dead 04x09 Hd 720 Ligero Sub Amarillo



"After"

Como Rick trata de viejas heridas, los miembros de la prisión tienen que ponerse de acuerdo con su nuevo entorno y se preguntan si la supervivencia por sí sola es suficiente. 






Titulo: The Walking Dead 4x09 - "After"

Idioma: Ingles
Subtitulos: Español Latino Amarillos (Pegados) 
Formato: MP4 Servidor: Shared 1 link
Tamaño: 472 MB
Vídeo: Mp4 | 720X404| HDTV
Audio: 2 canales
Links: Rafadeth
Duración: 43m:02s


Nota: Se puede ver online 




Format                                   : MPEG-4

Format profile                           : Base Media / Version 2

Codec ID                                 : mp42

File size                                : 472 MiB

Duration                                 : 43mn 2s

Overall bit rate mode                    : Variable

Overall bit rate                         : 1 533 Kbps

Writing application                      : mp4creator 1.6.1d


Video

ID                                       : 1

Format                                   : AVC

Format/Info                              : Advanced Video Codec

Format profile                           : [email protected]

Format settings, CABAC                   : No

Format settings, ReFrames                : 1 frame

Codec ID                                 : avc1

Codec ID/Info                            : Advanced Video Coding

Duration                                 : 43mn 2s

Bit rate mode                            : Variable

Bit rate                                 : 1 405 Kbps

Width                                    : 720 pixels

Height                                   : 416 pixels

Original height                          : 404 pixels

Display aspect ratio                     : 1.731

Original display aspect ratio            : 16:9

Frame rate mode                          : Variable

Frame rate                               : 23.976 fps

Minimum frame rate                       : 23.974 fps

Maximum frame rate                       : 23.981 fps

Color space                              : YUV

Chroma subsampling                       : 4:2:0

Bit depth                                : 8 bits

Scan type                                : Progressive

Bits/(Pixel*Frame)                       : 0.196

Stream size                              : 432 MiB (92%)


Audio

ID                                       : 2

Format                                   : AAC

Format/Info                              : Advanced Audio Codec

Format profile                           : LC

Codec ID                                 : 40

Duration                                 : 43mn 0s

Source duration                          : 43mn 1s

Bit rate mode                            : Variable

Bit rate                                 : 126 Kbps

Maximum bit rate                         : 198 Kbps

Channel count                            : 2 channels

Channel positions                        : Front: L R

Sampling rate                            : 44.1 KHz

Compression mode                         : Lossy

Stream size                              : 38.6 MiB (8%)

Source stream size                       : 38.6 MiB (8%)





https://shared.com/k7vxgo4ng6?s=l



The Walking Dead 04x09 Hd 720 Ligero Sub Amarillo
30 Puntos Score: 10/10
Visitas: 2473 Favoritos: 2
Ver los usuarios que votaron...
11 Comentarios The Walking Dead 04x09 Hd 720 Ligero Sub Amarillo
fuera de linea. como lo miro online???
@matty_22
Cita matty_22: Mostrar

Tan mal anda o fuera de linea que lleva 185 descargas que raro verifica bien y el online anda depende tu conexion
 Me gustar?
NmLCygni amigo la verdad no se puede descargar ...o es solo para ver?...gracias-
esta de lujo tu aporte muchas gracias se ve de lujo y subtitulado k mas kremos
@russell09
Cita russell09: Mostrar
las 2 cosas se puede ver y descargar no se porque algo tan sencillo lo hacen dificil
NmLCygni Ok Viejo no queria molestarte,,,Veo que te has levantado de mal humor...Solo podrias explicarnos como descargarlo y listo nadie te preguntaria nada...Solo te agradecerian por tu aporte....
Ya se sabe que apretando en Download se descarga....Pero los que tenemos MiPONY no te toma la descarga ese es el problema...iGUAL gracias.
Cita russell09: Mostrar

no estoy de malas solo que algunos parece que nunca han descargado en su vida y si el myponi anda mal yo uso jd 2 beta el burro tal vez mas tarde lo posteo ahi si no habra problemas el jd2 beta lo acepta  


Cita fredydarko: Mostrar

Cita dantecami: Mostrar
gracias por pasar
grax men bajando
Muchas gracias  
Para dejar un comentario Registrate! o.. eres ya usuario? Accede!