Oops.. Este post tiene los enlaces eliminados!

Identi revisa las denuncias de los usuarios en busca de enlaces eliminados que no dejan descargar los archivos, este mensaje te informa que este post que estas viendo tiene los enlaces eliminados.

Usa el Buscador

Por favor, te recomendamos que uses el buscador para encontrar más alternativas.

Thor: The Dark World 2013 [BDRip 1080p][Latino]

  • Categoría: Reciclaje
  • Publicado hace más de 2 años

Thor: The Dark World 2013
  BDRip 1080p | Audio Latino AC3 5.1 | 2.07 GB
Secuela de la adaptación a la gran pantalla del cómic del mismo nombre. Thor es un superhéroe de las historietas de Marvel. Fue creado por Jack Kirby y Stan Lee, inspirándose en el personaje mitológico.
 "Thor, El Mundo Oscuro" de Marvel es la continuación en la gran pantalla de las aventuras de Thor, el Poderoso Vengador, en su lucha por salvar la Tierra y los Nueve Reinos de un oscuro enemigo que es anterior al mismísimo universo. Después de "Thor" y "Los Vengadores?, Thor lucha por restablecer el orden en todo el cosmos... pero una antigua raza liderada por el vengativo Malekith regresa para volver a sumir al universo en la oscuridad. Thor se enfrenta a un enemigo al que ni siquiera Odín y Asgard pueden hacer frente y deberá embarcarse en su viaje más peligroso y personal. En este viaje se reunirá con Jane Foster y deberá sacrificarlo todo para salvar el mundo.

Datos de la Pelicula
 Título: Thor: El mundo oscuro
 Título original: Thor: The Dark World
 País: USA
 Estreno en USA: 08/11/2013
 Estreno en España: 31/10/2013
 Lanzamiento en DVD (alquiler): 20/02/2014
 Estreno en DVD (venta): 27/02/2014
 Blu-Ray 3D: 26/02/2014
 Estreno en Blu-ray: 26/02/2014
 Productora: Paramount Pictures, Marvel Studios
 Director: Alan Taylor
 Guión: Christopher Yost, Christopher Markus, Stephen McFeely
 Reparto: Chris Hemsworth, Natalie Portman, Tom Hiddleston, Stellan Skarsgård, Idris Elba, Christopher Eccleston, Adewale Akinnuoye-Agbaje, Kat Dennings, Ray Stevenson, Zachary Levi, Tadanobu Asano, Jaimie Alexander, Rene Russo, Anthony Hopkins
Info Codificacion
 General
Complete name : Thor.The.Dark.World.2013.1080p.BDRip.latino.almacervecera.mkv
 Format : Matroska
 Format version : Version 4 / Version 2
 File size : 2.07 GiB
 Duration : 1h 52mn
 Overall bit rate : 2 637 Kbps
 Movie name : Thor.The.Dark.World.2013.1080p.BDRip.latino.almacervecera
 Encoded date : UTC 2014-02-06 14:30:57
 Writing application : mkvmerge v6.7.0 64bit built on Jan 8 2014 15:10:52
 Writing library : libebml v1.3.0 + libmatroska v1.4.1
Video
 ID : 1
 Format : AVC
 Format/Info : Advanced Video Codec
 Format profile : [email protected]
 Format settings, CABAC : Yes
 Format settings, ReFrames : 4 frames
 Codec ID : V_MPEG4/ISO/AVC
 Duration : 1h 52mn
 Bit rate : 1 997 Kbps
 Width : 1 920 pixels
 Height : 800 pixels
 Display aspect ratio : 2.40:1
 Frame rate mode : Constant
 Frame rate : 23.976 fps
 Color space : YUV
 Chroma subsampling : 4:2:0
 Bit depth : 8 bits
 Scan type : Progressive
 Bits/(Pixel*Frame) : 0.054
 Stream size : 1.52 GiB (74%)
 Title : almacervecera
 Writing library : x264 core 135 r2 f0c1c53
 Encoding settings : cabac=1 / ref=4
 Language : Español Latino
 Default : Yes
 Forced : No
 Color primaries : BT.709
 Matrix coefficients : BT.709
Audio
 ID : 2
 Format : AC-3
 Format/Info : Audio Coding 3
 Mode extension : CM (complete main)
 Format settings, Endianness : Big
 Codec ID : A_AC3
 Duration : 1h 52mn
 Bit rate mode : Constant
 Bit rate : 640 Kbps
 Channel count : 6 channels
 Channel positions : Front: L C R, Side: L R, LFE
 Sampling rate : 48.0 KHz
 Bit depth : 16 bits
 Compression mode : Lossy
 Delay relative to video : 5s 0ms
 Stream size : 513 MiB (24%)
 Title : almacervecera
 Language : Español Latino
 Default : Yes
 Forced : No
Capturas















Sin contraseña | Facil Extraction


- Mas Enlaces Aca:

http://www.udenti.li/index.php?topic=24312#sthash.P7fjRSIn.dpuf
Thor: The Dark World 2013 [BDRip 1080p][Latino]
0 Puntos Score: 0/10
Visitas: 2352 Favoritos: 1
5 Comentarios Thor: The Dark World 2013 [BDRip 1080p][Latino]
links caidos. los de los otros enlaces son muy lentos, ni hablar, lastima.
maestro no la podes subir a putlocker o mega ? ahi seria la leche !
el tercero esta caido amigo arreglalos porfas
Este post esta cerrado y no se permiten comentarios.
Para dejar un comentario Registrate! o.. eres ya usuario? Accede!