Solo Audio Latino El amor tiene dos caras 1996

Solo Audio Latino El amor tiene dos caras 1996






Título original : The Mirror Has Two Faces
Año: 1996
Duración: 126 min.
País: Estados Unidos
Director: Barbra Streisand

Guión: Richard LaGravenese (Remake: André Cayatte, Gérard Oury)
Música: Marvin Hamlisch
Fotografía: Dante Spinotti, Andrzej Bartkowiak
Reparto: Barbra Streisand, Jeff Bridges, Pierce Brosnan, Lauren Bacall, Mimi Rogers, George Segal, Brenda Vaccaro, Laura Bailey, Austin Pendleton, Elle MacPherson
Productora: TriStar Pictures / Phoenix Pictures / Arnon Milchan / Barwood Films
Género: Comedia. Romance | Comedia romántica. Remake



Rose y Gregory, ambos profesores de la Universidad de Columbia, entablan una relación sentimental. Sus puntos de vista son distintos. Gregory cree que las relaciones sexuales pueden arruinar su vida, pero Rose opina lo contrario. Remake de la película francesa "El espejo tiene dos caras" de 1958






elite777


IMPORTANTÍSIMO!

DELAY: -8300


General
Unique ID : 177945137646340073183691794580034804441 (0x85DEFCA5D05C6832B02808FC009FDAD9)
Complete name : F:Mis Peliculas- LatinoTThe Mirror Has Two Faces 1996 -8300.mkv
Format : Matroska
Format version : Version 4 / Version 2
File size : 1.08 GiB
Duration : 2h 6mn
Overall bit rate : 1 222 Kbps
Encoded date : UTC 2014-01-18 00:27:43
Writing application : mkvmerge v6.5.0 ('Isn't she lovely') built on Oct 20 2013 12:50:05
Writing library : libebml v1.3.0 + libmatroska v1.4.1

Video
ID : 1
Format : MPEG-4 Visual
Format profile : [email protected]
Format settings, BVOP : No
Format settings, QPel : No
Format settings, GMC : No warppoints
Format settings, Matrix : Default (H.263)
Codec ID : V_MS/VFW/FOURCC / XVID
Codec ID/Hint : XviD
Duration : 2h 6mn
Bit rate : 877 Kbps
Width : 720 pixels
Height : 410 pixels
Display aspect ratio : 16:9
Frame rate mode : Constant
Frame rate : 23.976 fps
Color space : YUV
Chroma subsampling : 4:2:0
Bit depth : 8 bits
Scan type : Progressive
Compression mode : Lossy
Bits/(Pixel*Frame) : 0.124
Stream size : 794 MiB (72%)
Writing library : XviD 1.1.2 (UTC 2006-11-01)
Default : Yes
Forced : No

Audio #1
ID : 2
Format : AC-3
Format/Info : Audio Coding 3
Mode extension : CM (complete main)
Format settings, Endianness : Big
Codec ID : A_AC3
Duration : 2h 6mn
Bit rate mode : Constant
Bit rate : 192 Kbps
Channel count : 2 channels
Channel positions : Front: L R
Sampling rate : 48.0 KHz
Bit depth : 16 bits
Compression mode : Lossy
Delay relative to video : 20ms
Stream size : 174 MiB (16%)
Default : Yes
Forced : No

Audio #2
ID : 3
Format : MPEG Audio
Format version : Version 1
Format profile : Layer 3
Mode : Joint stereo
Mode extension : MS Stereo
Codec ID : A_MPEG/L3
Codec ID/Hint : MP3
Duration : 2h 6mn
Bit rate mode : Constant
Bit rate : 128 Kbps
Channel count : 2 channels
Sampling rate : 48.0 KHz
Compression mode : Lossy
Stream size : 116 MiB (10%)
Default : No
Forced : No


Solo Audio Latino El amor tiene dos caras 1996
20 Puntos Score: 6.7/10
Visitas: 3571 Favoritos: 1
Ver los usuarios que votaron...
13 Comentarios Solo Audio Latino El amor tiene dos caras 1996
Muchas gracias... que versi?
@edd2s ahi te puse la informacion de la version que tengo yo tambien las descargue por torrent
pues esa no la pude encontrar pero de todas formas muchas gracias.
Amigo, si descargaste la peli ?
@Elite hola amigo muchas gracias conseguis cualquier peli en audio latino? si existe
subi solo el audio latino de la peli un domingo cualquiera por favor muchas gracias
@bonanott no es tan asi .....hace mucho que busco la la la peli los duelistas 1977 y no la puedo encontrar ....?
donde encuentro el video para esta versi?
es un torrent los datos de la version estan en el post amigo
Excelente aporte! Gracias!
en deuda con puntos, mil gracias  
Por favor viejo si te es posible sube la versi?
alguien logre cargar el link porque a mi no me carga al jdonwloader
Para dejar un comentario Registrate! o.. eres ya usuario? Accede!