Oops.. Este post tiene los enlaces eliminados!

Identi revisa las denuncias de los usuarios en busca de enlaces eliminados que no dejan descargar los archivos, este mensaje te informa que este post que estas viendo tiene los enlaces eliminados.

Usa el Buscador

Por favor, te recomendamos que uses el buscador para encontrar más alternativas.

Joan Jett and the Blackhearts Video Collection

  • Categoría: Reciclaje
  • Publicado hace más de 2 años




Video 100% ripeado por mi disfruten



- Bad Reputation

- Cherry Bomb

- Cherry Bomb (Live with Cherie Currie)

- Crimson and Clover

- Do You Wanna Touch Me?

- Everyday People

- Fake Friends

- I Hate Myself For Lovin' You

- I Love Rock N' Roll (color version)

- I Love Rock N' Roll (original version)

- I Need Someone

- I Wanna Be Your Dog

- Light Of Day

- Little Liar

- Love Hurts

- The French Song



Video
ID                               : 1
Format                           : AVC
Format/Info                      : Advanced Video Codec
Format profile                   : [email protected]
Format settings, CABAC           : No
Format settings, ReFrames        : 1 frame
Format settings, GOP             : M=1, N=12
Codec ID                         : avc1
Codec ID/Info                    : Advanced Video Coding
Duration                         : 56mn 22s
Bit rate mode                    : Variable
Bit rate                         : 1 551 Kbps
Maximum bit rate                 : 1 800 Kbps
Width                            : 720 pixels
Height                           : 528 pixels
Display aspect ratio             : 4:3
Frame rate mode                  : Variable
Frame rate                       : 29.939 fps
Original frame rate              : 24.000 fps
Minimum frame rate               : 3.746 fps
Maximum frame rate               : 29.970 fps
Color space                      : YUV
Chroma subsampling               : 4:2:0
Bit depth                        : 8 bits
Scan type                        : Progressive
Bits/(Pixel*Frame)               : 0.136
Stream size                      : 625 MiB (91%)

Audio
ID                               : 2
Format                           : AAC
Format/Info                      : Advanced Audio Codec
Format profile                   : LC
Codec ID                         : 40
Duration                         : 56mn 21s
Bit rate mode                    : Variable
Bit rate                         : 152 Kbps
Channel(s)                       : 2 channels
Channel positions                : Front: L R
Sampling rate                    : 44.1 KHz
Compression mode                 : Lossy
Stream size                      : 61.2 MiB (9%)













Hola

http://www.identi.li/index.php?topic=263840

Te invito a pasar a mi humilde y olvidado post de esta fantastica serie Metal Evolution Series sobre origen del metal y sus distintas ramificaciones  SERIE COMPLETA TOTALMENTE SUBTITULADA EN EL MEJOR FORMATO MKV













Joan Jett and the Blackhearts Video Collection
20 Puntos Score: 10/10
Visitas: 873 Favoritos: 1
Ver los usuarios que votaron...
6 Comentarios Joan Jett and the Blackhearts Video Collection
buenisimo rafa!!!!!!!! gracias
Gracias   saludos  
ESta mujer me fascina desde hace mucho, y aun continua vigente.
Para dejar un comentario Registrate! o.. eres ya usuario? Accede!