Oops.. Este post tiene los enlaces eliminados!

Identi revisa las denuncias de los usuarios en busca de enlaces eliminados que no dejan descargar los archivos, este mensaje te informa que este post que estas viendo tiene los enlaces eliminados.

Usa el Buscador

Por favor, te recomendamos que uses el buscador para encontrar más alternativas.

Ufo The Broadcast archives JOYA

  • Categoría: Reciclaje
  • Publicado hace más de 2 años





Format                           : AVI

Format/Info                      : Audio Video Interleave

File size                        : 300 MiB

Duration                         : 31mn 17s

Overall bit rate                 : 1 341 Kbps

Writing application              : Lavf51.12.1


Video

ID                               : 0

Format                           : MPEG-4 Visual

Format profile                   : [email protected]

Format settings, BVOP            : No

Format settings, QPel            : No

Format settings, GMC             : No warppoints

Format settings, Matrix          : Default (H.263)

Codec ID                         : DX50

Codec ID/Hint                    : DivX 5

Duration                         : 31mn 17s

Bit rate                         : 1 200 Kbps

Width                            : 852 pixels

Height                           : 480 pixels

Display aspect ratio             : 16:9

Frame rate                       : 29.970 fps

Color space                      : YUV

Chroma subsampling               : 4:2:0

Bit depth                        : 8 bits

Scan type                        : Progressive

Compression mode                 : Lossy

Bits/(Pixel*Frame)               : 0.098

Stream size                      : 269 MiB (89%)

Writing library                  : Lavc51.40.4


Audio

ID                               : 1

Format                           : MPEG Audio

Format version                   : Version 1

Format profile                   : Layer 3

Mode                             : Joint stereo

Mode extension                   : MS Stereo

Codec ID                         : 55

Codec ID/Hint                    : MP3

Duration                         : 31mn 17s

Bit rate mode                    : Constant

Bit rate                         : 128 Kbps

Channel(s)                       : 2 channels

Sampling rate                    : 44.1 KHz

Compression mode                 : Lossy

Stream size                      : 28.6 MiB (10%)

Alignment                        : Aligned on interleaves

Interleave, duration             : 26 ms (0.78 video frame)

Writing library                  : LAME3.97












https://shared.com/90m7rw29ak?s=l




Hola


Te invito a pasar a mi humilde y olvidado post de esta fantastica serie Metal Evolution Series sobre origen del metal y sus distintas ramificaciones  SERIE COMPLETA TOTALMENTE SUBTITULADA EN EL MEJOR FORMATO MKV






Ufo The Broadcast archives JOYA
10 Puntos Score: 10/10
Visitas: 546 Favoritos: 2
Ver los usuarios que votaron...
2 Comentarios Ufo The Broadcast archives JOYA
la mejor epoca de ufo!!!!!! gracias rafa
muy buen material de esta gran banda sigue asi amigo. gracias
Para dejar un comentario Registrate! o.. eres ya usuario? Accede!