Los Iracundos - Compilado (Flac)(Mg)








Información


Formato: Flac (image + .cue)

Año: 2004

Covers: En el rar



Lista de canciones


01 Puerto Montt

02 Va cayendo una lagrima

03 La lluvia terminó

04 Agua con amor

05 Marionetas de cartón

06 El juguete (II Giocattolo)

07 La bámbola

08 Hace frío ya 

09 Porque no vale la pena

10 Fue una fábula

11 No tires la primera piedra

12 Y te has quedado sola

13 Te lo pido de rodillas

14 Cada noche mía

15 Venite volando




Log:

Exact Audio Copy V1.0 beta 3 from 29. August 2011

EAC extraction logfile from 28. September 2013, 0:20

Los Iracundos / Compilado

Used drive  : HL-DT-STDVDRAM GH22NS50   Adapter: 2  ID: 1

Read mode               : Secure
Utilize accurate stream : Yes
Defeat audio cache      : Yes
Make use of C2 pointers : No

Read offset correction                      : 0
Overread into Lead-In and Lead-Out          : No
Fill up missing offset samples with silence : Yes
Delete leading and trailing silent blocks   : No
Null samples used in CRC calculations       : Yes
Used interface                              : Installed external ASPI interface

Used output format : Internal WAV Routines
Sample format      : 44.100 Hz; 16 Bit; Stereo


TOC of the extracted CD

     Track |   Start  |  Length  | Start sector | End sector 
    ---------------------------------------------------------
        1  |  0:00.00 |  3:11.05 |         0    |    14329   
        2  |  3:11.05 |  2:25.31 |     14330    |    25235   
        3  |  5:36.36 |  2:24.26 |     25236    |    36061   
        4  |  8:00.62 |  2:39.69 |     36062    |    48055   
        5  | 10:40.56 |  3:19.64 |     48056    |    63044   
        6  | 14:00.45 |  2:37.63 |     63045    |    74882   
        7  | 16:38.33 |  2:31.22 |     74883    |    86229   
        8  | 19:09.55 |  2:26.60 |     86230    |    97239   
        9  | 21:36.40 |  2:49.04 |     97240    |   109918   
       10  | 24:25.44 |  3:36.66 |    109919    |   126184   
       11  | 28:02.35 |  3:02.44 |    126185    |   139878   
       12  | 31:05.04 |  2:43.18 |    139879    |   152121   
       13  | 33:48.22 |  2:31.27 |    152122    |   163473   
       14  | 36:19.49 |  2:51.13 |    163474    |   176311   
       15  | 39:10.62 |  2:35.47 |    176312    |   187983   


Range status and errors

Selected range

     Filename D:Los IracundosLos Iracundos - Compilado.wav

     Peak level 100.0 %
     Extraction speed 1.6 X
     Range quality 100.0 %
     Test CRC DC07630A
     Copy CRC DC07630A
     Copy OK

No errors occurred

End of status report

==== Log checksum C0F613B42D344F203D84A04075198534989F54D394D4B26A64DFC94FC683D22C ====









Contraseña: ellocoboni




Los Iracundos - Compilado (Flac)(Mg)
35 Puntos Score: 7/10
Visitas: 4681 Favoritos: 4
Ver los usuarios que votaron...
15 Comentarios Los Iracundos - Compilado (Flac)(Mg)
son sus mejores temas?
URUGUAY NOMA..... PAYSANDU NOMA.....
Hola, cual es la contrase?
hola cual es la contrase?
@M.Scofield
Son de los mejores aunque tienen otras canciones muy buenas

@NOELIOX @marcepachu
Gracias por pasar  

@rominza @venito
La contrase?
muchismas gracias capo, ando buscando algo de chayanne y arjona en flac, si pudieras sibur seria genial
@baneador
Gracias por pasar y por los puntos  
GRACIAS AMIGO!!!ESTA MUSICA CLASICA DEL RECUERDO!!!!!!!!
GRANDE LOS IRACUNDOS CON EL GRAN EDUARDO FRANCO QUE NUNCA MORIRA!!!!!!
MA?
muchas gracias
@davenger
Si, una de las mejores bandas   , muy buena canci?
Los Iracundos en FLAC grandioso. Muchisiimas gracias
buen aporte , gracias
Legendaria banda uruguaya.-Gracias amigo por este hermoso cl?
Para dejar un comentario Registrate! o.. eres ya usuario? Accede!