Los Moros - 20 secretos de amor (Flac)









Información


Formato: Flac (image + .cue)

Año: 2004

Covers: En el rar



Lista de canciones


01 Dejame, Si has olvidado que te quiero

02 Mi gran amor se ha ido

03 Me subes y me bajas

04 Llora la niña

05 Por inconsciencia

06 Triste carita de pena

07 La trampa esta tendida

08 Llora, si te sientes sola

09 Te amo a ti

10 Tanta soledad

11 Por favor dime que si

12 Tanto, tanto te extraño

13 Baila gitana hermosa

14 Ayudala, padre que estas en los cielos

15 Muñequita que me das tu amor

16 Tienes una duda

17 Olvidalo pequeña

18 Te busco arrepentido

19 Anabella yo te quiero

20 Amore mio, estoy enamorado





Log:

Exact Audio Copy V1.0 beta 3 from 29. August 2011

EAC extraction logfile from 29. September 2013, 14:14

Los Moros / 20 Secretos de Amor

Used drive  : HL-DT-STDVDRAM GH22NS50   Adapter: 2  ID: 1

Read mode               : Secure
Utilize accurate stream : Yes
Defeat audio cache      : Yes
Make use of C2 pointers : No

Read offset correction                      : 0
Overread into Lead-In and Lead-Out          : No
Fill up missing offset samples with silence : Yes
Delete leading and trailing silent blocks   : No
Null samples used in CRC calculations       : Yes
Used interface                              : Installed external ASPI interface

Used output format : Internal WAV Routines
Sample format      : 44.100 Hz; 16 Bit; Stereo


TOC of the extracted CD

     Track |   Start  |  Length  | Start sector | End sector 
    ---------------------------------------------------------
        1  |  0:00.00 |  3:05.65 |         0    |    13939   
        2  |  3:05.65 |  3:01.50 |     13940    |    27564   
        3  |  6:07.40 |  3:02.29 |     27565    |    41243   
        4  |  9:09.69 |  2:45.63 |     41244    |    53681   
        5  | 11:55.57 |  2:56.01 |     53682    |    66882   
        6  | 14:51.58 |  2:11.36 |     66883    |    76743   
        7  | 17:03.19 |  3:04.69 |     76744    |    90612   
        8  | 20:08.13 |  2:21.40 |     90613    |   101227   
        9  | 22:29.53 |  3:26.57 |    101228    |   116734   
       10  | 25:56.35 |  2:54.57 |    116735    |   129841   
       11  | 28:51.17 |  2:55.55 |    129842    |   143021   
       12  | 31:46.72 |  3:55.66 |    143022    |   160712   
       13  | 35:42.63 |  2:55.24 |    160713    |   173861   
       14  | 38:38.12 |  3:23.49 |    173862    |   189135   
       15  | 42:01.61 |  2:45.18 |    189136    |   201528   
       16  | 44:47.04 |  3:19.65 |    201529    |   216518   
       17  | 48:06.69 |  2:53.12 |    216519    |   229505   
       18  | 51:00.06 |  3:01.44 |    229506    |   243124   
       19  | 54:01.50 |  2:26.03 |    243125    |   254077   
       20  | 56:27.53 |  2:39.29 |    254078    |   266031   


Range status and errors

Selected range

     Filename D:Los Moros - 20 Secretos de AmorLos Moros - 20 Secretos de Amor.wav

     Peak level 100.0 %
     Extraction speed 1.8 X
     Range quality 99.9 %
     Test CRC A2ECD5F3
     Copy CRC A2ECD5F3
     Copy OK

No errors occurred

End of status report

==== Log checksum B63CDE052DD79F7EF5E411D6C633BA16EC5CCEA93D16EA2EC64C27BAFE463413 ====



 



Contraseña: ellocoboni




Los Moros - 20 secretos de amor (Flac)
10 Puntos Score: 10/10
Visitas: 5794 Favoritos: 3
Ver los usuarios que votaron...
7 Comentarios Los Moros - 20 secretos de amor (Flac)
Muchas gracias por compartir... Saludos!
muy agradecido!
@LoneGeorge
Gracias por pasar y por los puntos  , saludos

@mauropi
Gracias por pasar  
hola,me podes decir cual es la contrase?
Gracias X Mil Descargando
Para dejar un comentario Registrate! o.. eres ya usuario? Accede!