The Shawshank Redemption Latino




The Shawshank Redemption (Cadena perpetua en España, Sueños de libertad oEscape a la libertad en la Argentina; y Sueño de fuga en Venezuela, Colombia, Chile, México y Perú) es una película estadounidense del año 1994, escrita y dirigida porFrank Darabont y protagonizada por Tim Robbins y Morgan Freeman.
Basada en la novela corta de Stephen KingRita Hayworth y la redención de Shawshank, el film abarca una mirada optimista de la vida, contando la historia de dos amigos, Robbins y Freeman, en una prisión. Se enfatiza en el no perder las esperanzas, incluso en las más inhóspitas situaciones. Fue nominada a múltiples premios, incluyendo siete premios Oscar, con el de mejor película, sin embargo, no obtuvo ningún premio, en parte por competir con otros dos colosos de la época: Forrest Gump y Pulp Fiction.
Sin embargo, el tiempo le dio una favorable crítica, logrando prestigio y reconocimiento mundial tras su ediciones en VHSDVD y Blu-ray. Así mismo, varios críticos, hoy en día, la consideran como una de las mejores obras cinematográficas de los 90, como también una de las más grandes filmaciones jamás hechas.[sup]1[/sup]2[/sup]
Del mismo modo, The Shawshank Redemption está considerada como la mejor película de la historia según Internet Movie Database, junto a El padrino (1972)



Format                                   : AVI

Format/Info                              : Audio Video Interleave

File size                                : 700 MiB

Duration                                 : 2h 22mn

Overall bit rate mode                    : Variable

Overall bit rate                         : 687 Kbps

Writing application                      : VirtualDubMod 1.5.4.1 (build 2178/release)

Writing library                          : VirtualDubMod build 2178/release


Video

ID                                       : 0

Format                                   : MPEG-4 Visual

Format profile                           : Advanced [email protected]

Format settings, BVOP                    : 1

Format settings, QPel                    : No

Format settings, GMC                     : No warppoints

Format settings, Matrix                  : Custom

Codec ID                                 : XVID

Codec ID/Hint                            : XviD

Duration                                 : 2h 22mn

Bit rate                                 : 560 Kbps

Width                                    : 720 pixels

Height                                   : 416 pixels

Display aspect ratio                     : 1.731

Frame rate                               : 23.976 fps

Color space                              : YUV

Chroma subsampling                       : 4:2:0

Bit depth                                : 8 bits

Scan type                                : Progressive

Compression mode                         : Lossy

Bits/(Pixel*Frame)                       : 0.078

Stream size                              : 570 MiB (81%)


Audio

ID                                       : 1

Format                                   : MPEG Audio

Format version                           : Version 1

Format profile                           : Layer 3

Mode                                     : Joint stereo

Mode extension                           : MS Stereo

Codec ID                                 : 55

Codec ID/Hint                            : MP3

Duration                                 : 2h 22mn

Bit rate mode                            : Variable

Bit rate                                 : 115 Kbps

Nominal bit rate                         : 128 Kbps

Channel count                            : 2 channels

Sampling rate                            : 48.0 KHz

Compression mode                         : Lossy

Stream size                              : 117 MiB (17%)

Alignment                                : Aligned on interleaves

Interleave, duration                     : 24 ms (0.58 video frame)
















Hola


Te invito a pasar a mi humilde y olvidado post de esta fantastica serie Metal Evolution Series sobre origen del metal y sus distintas ramificaciones  SERIE COMPLETA TOTALMENTE SUBTITULADA EN EL MEJOR FORMATO MKV








The Shawshank Redemption Latino

peliculas - programas
30 Puntos Score: 10/10
Visitas: 3642 Favoritos: 4
Ver los usuarios que votaron...
3 Comentarios The Shawshank Redemption Latino
Muchas gracias   esta pelis es muy buena  
@vellanizar si lo es gracias
Cita vellanizar: Mostrar
@SALAGUIN7K
Cita SALAGUIN7K: Mostrar
gracias crei que nadie ve completos mis post
Para dejar un comentario Registrate! o.. eres ya usuario? Accede!