All is Lost 2013 [BDRip 1080p][Audio Latino AC3]


All is Lost 2013
  BDRip 1080p | Audio Latino AC3 5.1 | 1.91 GB
Durante un viaje en solitario por el Océano Índico, un hombre del que desconocemos el nombre (Robert Redford), se despierta y descubre que hay una vía de agua en su velero de 11 metros de eslora que ha chocado contra un contenedor abandonado en alta mar. Con el equipo de navegación averiado y sin radio, el hombre no sabe que se dirige hacia una terrible tormenta. A pesar de conseguir tapar la vía de agua, su intuición de viejo marinero y una fuerza inusitada para su edad, casi no sobrevive al encuentro con la tempestad.
 Únicamente con un sextante y unas cartas náuticas para saber dónde se encuentra, solo le queda esperar que las corrientes le lleven a un pasillo marítimo desde donde podrá hacer señales a otra nave. Pero el sol es implacable, los tiburones merodean y sus víveres bajan de forma alarmante. Por muy capaz que sea, no tarda en enfrentarse a la muerte.

Datos de la Pelicula
 Título: Cuando todo está perdido
 Título original: All is Lost
 País: USA
 Estreno en USA: 18/10/2013
 Estreno en España: 14/02/2014
 Productora: Roadside Attractions
 Director: J.C. Chandor
 Guión: J.C. Chandor
 Reparto: Robert Redford
Info Codificacion
 General
Complete name : All.Is.Lost.2013.1080p.Latino.BDRip.almacervecera.mkv
 Format : Matroska
 Format version : Version 4 / Version 2
 File size : 1.91 GiB
 Duration : 1h 45mn
 Overall bit rate : 2 580 Kbps
 Movie name : All.Is.Lost.2013.1080p.Latino.BDRip.almacervecera
 Encoded date : UTC 2014-01-30 03:08:18
 Writing application : mkvmerge v6.7.0 64bit built on Jan 8 2014 15:10:52
 Writing library : libebml v1.3.0 + libmatroska v1.4.1
Video
 ID : 1
 Format : AVC
 Format/Info : Advanced Video Codec
 Format profile : [email protected]
 Format settings, CABAC : Yes
 Format settings, ReFrames : 4 frames
 Codec ID : V_MPEG4/ISO/AVC
 Duration : 1h 45mn
 Bit rate : 2 130 Kbps
 Width : 1 920 pixels
 Height : 800 pixels
 Display aspect ratio : 2.40:1
 Frame rate mode : Constant
 Frame rate : 23.976 fps
 Color space : YUV
 Chroma subsampling : 4:2:0
 Bit depth : 8 bits
 Scan type : Progressive
 Bits/(Pixel*Frame) : 0.058
 Stream size : 1.54 GiB (81%)
 Title : almacervecera
 Writing library : x264 core 135 r2 f0c1c53
 Encoding settings : cabac=1 / ref=4
 Language : Spanish Latin
 Default : Yes
 Forced : No
 Color primaries : BT.709
 Matrix coefficients : BT.709
Audio
 ID : 2
 Format : AC-3
 Format/Info : Audio Coding 3
 Mode extension : CM (complete main)
 Format settings, Endianness : Big
 Codec ID : A_AC3
 Duration : 1h 45mn
 Bit rate mode : Constant
 Bit rate : 448 Kbps
 Channel count : 6 channels
 Channel positions : Front: L C R, Side: L R, LFE
 Sampling rate : 48.0 KHz
 Bit depth : 16 bits
 Compression mode : Lossy
 Stream size : 339 MiB (17%)
 Title : almacervecera
 Language : Español Latino
 Default : Yes
 Forced : No
Capturas

















Sinn contraseña | Facil Extraction

BILLONUPLOADS


MAS ENLACES ACA

http://www.udenti.li/index.php?topic=24225
All is Lost 2013 [BDRip 1080p][Audio Latino AC3]
0 Puntos Score: 0/10
Visitas: 15925 Favoritos: 3
1 Comentarios All is Lost 2013 [BDRip 1080p][Audio Latino AC3]
Gracias salud2  
Para dejar un comentario Registrate! o.. eres ya usuario? Accede!