Infaltables La Marcha de los pinguinos 1 y 2





La película muestra los viajes anuales de los pingüinos emperador de la Antártida. Enotoño, todos los pingüinos en edad reproductiva (de más de cinco años) dejan el océano, su hábitat habitual, para iniciar un viaje hacia el interior de la Antártida hacia sus lugares de anidamiento y reproducción ancestrales. Allí, los pingüinos comienzan el cortejo que dará lugar a una nueva vida. Para que los polluelos sobrevivan su madre ha de hacer varios viajes desde el lugar de anidamiento hasta el océano, donde captura la comida, mientras el padre cuida el polluelo a lo largo de varios meses.
El rodaje de la película, realizado en los alrededores de la base científica francesa de Dumont d'Urville en Tierra Adelia, duró un año. Se llegó a hacer un videojuego para laGame Boy Advance, con el título March of the Penguins.





Format                                   : AVI

Format/Info                              : Audio Video Interleave

File size                                : 768 MiB

Duration                                 : 1h 20mn

Overall bit rate                         : 1 339 Kbps

Writing application                      : Lavf51.12.1


Video

ID                                       : 0

Format                                   : xvid

Codec ID                                 : xvid

Duration                                 : 1h 20mn

Bit rate                                 : 1 200 Kbps

Width                                    : 720 pixels

Height                                   : 576 pixels

Display aspect ratio                     : 5:4

Frame rate                               : 23.976 fps

Standard                                 : PAL

Bits/(Pixel*Frame)                       : 0.121

Stream size                              : 688 MiB (90%)


Audio

ID                                       : 1

Format                                   : MPEG Audio

Format version                           : Version 1

Format profile                           : Layer 3

Mode                                     : Joint stereo

Mode extension                           : MS Stereo

Codec ID                                 : 55

Codec ID/Hint                            : MP3

Duration                                 : 1h 19mn

Bit rate mode                            : Constant

Bit rate                                 : 128 Kbps

Channel count                            : 2 channels

Sampling rate                            : 44.1 KHz

Compression mode                         : Lossy

Stream size                              : 72.8 MiB (9%)

Alignment                                : Aligned on interleaves

Interleave, duration                     : 26 ms (0.63 video frame)










Format                                   : AVI

Format/Info                              : Audio Video Interleave

File size                                : 504 MiB

Duration                                 : 52mn 33s

Overall bit rate                         : 1 341 Kbps

Writing application                      : Lavf51.12.1


Video

ID                                       : 0

Format                                   : xvid

Codec ID                                 : xvid

Duration                                 : 52mn 33s

Bit rate                                 : 1 201 Kbps

Width                                    : 720 pixels

Height                                   : 576 pixels

Display aspect ratio                     : 5:4

Frame rate                               : 23.976 fps

Standard                                 : PAL

Bits/(Pixel*Frame)                       : 0.121

Stream size                              : 451 MiB (90%)


Audio

ID                                       : 1

Format                                   : MPEG Audio

Format version                           : Version 1

Format profile                           : Layer 3

Mode                                     : Joint stereo

Mode extension                           : MS Stereo

Codec ID                                 : 55

Codec ID/Hint                            : MP3

Duration                                 : 52mn 33s

Bit rate mode                            : Constant

Bit rate                                 : 128 Kbps

Channel count                            : 2 channels

Sampling rate                            : 44.1 KHz

Compression mode                         : Lossy

Stream size                              : 48.1 MiB (10%)

Alignment                                : Aligned on interleaves

Interleave, duration                     : 26 ms (0.63 video frame)











http://BillionUploads.com/39tvlafcua29
http://BillionUploads.com/57rrna24bdst


100% Ripeados por mi disfruten







Hola


Te invito a pasar a mi humilde y olvidado post de esta fantastica serie Metal Evolution Series sobre origen del metal y sus distintas ramificaciones  SERIE COMPLETA TOTALMENTE SUBTITULADA EN EL MEJOR FORMATO MKV







Infaltables La Marcha de los pinguinos 1 y 2
20 Puntos Score: 10/10
Visitas: 891 Favoritos: 2
Ver los usuarios que votaron...
3 Comentarios Infaltables La Marcha de los pinguinos 1 y 2
Muchas gracias  
gracias, no sabia de la segunda parte  
gracias por compartirlos, excelentes documentales  
Para dejar un comentario Registrate! o.. eres ya usuario? Accede!