La casa del fin de los tiempos 2013 [BDRip 1080p]


 

La casa del fin de los tiempos 2013

BDRip 1080p | Audio Latino AC3 5.1 | 1.39 GB


 Narra la historia de Dulce (Ruddy Rodríguez), una madre de familia que  tiene encuentros con apariciones dentro de su vieja casa, donde debe  descifrar un oscuro misterio..


 Sinopsis

 Película de bajo presupuesto de terror venozolana... y piensas que va a  ser mala de solemnidad. Pues te equivocas. Vas a ver una película  fresca, original y que te dejará con la boca abierta.
 Es de esos  films que mejor que no te cuenten nada y digieras por ti mismo toda la  información en el momento adecuado. Su arranque es un poco pausado hasta  el momento en que se empiezan a suceder acontecimientos misteriosos en  el que comienza a subir el ritmo de la película en crescendo hasta un  final de los que te dejan con la boca abierta y los pelos de punta.
  Las actuaciones son en su mayoría correctas y bastante creíbles  destacando el papel de la madre que lleva el mayor peso interpretativo  de la película. El trabajo del director es buenísimo creando escenas de  verdadera tensión esperando algo que sabes que está a punto de ocurrir y  escenas de saltar del sofá del susto.
 Lo peor es que no hubieran  contado con un mayor presupuesto para realizarla porque podria haber  salido una verdadera joya del cine de terror psicológico. No sería de  extrañar la noticia de un remake hollywoodiense en breve.


Datos de la Pelicula

 Título original
 La casa del fin de los tiempos
 Año
 2013
 Duración
 97 min.
 País
 Venezuela
 Director
 Alejandro Hidalgo
 Guión
 Alejandro Hidalgo
 Música
 Yoncarlos Medina
 Fotografía
 Cezary Jaworski
 Reparto
 Ruddy Rodríguez, Gonzalo Cubero, Rosmel Bustamante, Guillermo García,  Adriana Calzadilla, José León, Héctor Mercado, Yucemar Morales
 Productora
 Epica Produccion / X Rojo Producciones / JEMD Films / Xenon Films / La Fundación Villa del Cine
 Género
 Intriga. Terror


Info Codificacion

 General


Complete name : La.Casa.Del.Fin.De.Los.Tiempos.2013.1080p.BDRip.almacervecera.mkv
 Format : Matroska
 Format version : Version 4 / Version 2
 File size : 1.39 GiB
 Duration : 1h 40mn
 Overall bit rate : 1 972 Kbps
 Movie name : The.House.Of.The.End.Times.2013.1080p.BDRip.almacervecera
 Encoded date : UTC 2014-01-29 15:34:22
 Writing application : mkvmerge v6.7.0 64bit built on Jan 8 2014 15:10:52
 Writing library : libebml v1.3.0 + libmatroska v1.4.1


Video

 ID : 1
 Format : AVC
 Format/Info : Advanced Video Codec
 Format profile : [email protected]
 Format settings, CABAC : Yes
 Format settings, ReFrames : 6 frames
 Codec ID : V_MPEG4/ISO/AVC
 Duration : 1h 40mn
 Bit rate : 1 548 Kbps
 Width : 1 920 pixels
 Height : 1 088 pixels
 Display aspect ratio : 16:9
 Frame rate mode : Constant
 Frame rate : 23.976 fps
 Color space : YUV
 Chroma subsampling : 4:2:0
 Bit depth : 8 bits
 Scan type : Progressive
 Bits/(Pixel*Frame) : 0.031
 Stream size : 1.09 GiB (79%)
 Title : almacervecera
 Writing library : x264 core 130 r2273 b3065e6
 Encoding settings : cabac=1 / ref=6
 Language : English
 Default : Yes
 Forced : No
 Color primaries : BT.709
 Transfer characteristics : BT.709
 Matrix coefficients : BT.709


Audio

 ID : 2
 Format : AC-3
 Format/Info : Audio Coding 3
 Mode extension : CM (complete main)
 Format settings, Endianness : Big
 Codec ID : A_AC3
 Duration : 1h 40mn
 Bit rate mode : Constant
 Bit rate : 384 Kbps
 Channel count : 6 channels
 Channel positions : Front: L C R, Side: L R, LFE
 Sampling rate : 48.0 KHz
 Bit depth : 16 bits
 Compression mode : Lossy
 Stream size : 277 MiB (19%)
 Title : almacervecera
 Language : Español Latino
 Default : Yes
 Forced : No


Capturas
















Sin contraseña | Facil Extraction

BILLONUPLOADS


MAS ENLACES ACA:

http://www.udenti.li/index.php?topic=24217#sthash.H2IbTKDH.dpuf
La casa del fin de los tiempos 2013 [BDRip 1080p]
23 Puntos Score: 7.7/10
Visitas: 3700 Favoritos: 3
Ver los usuarios que votaron...
12 Comentarios La casa del fin de los tiempos 2013 [BDRip 1080p]
mexican cinema?
aportazo, recomendada.
tremenda pelicula pero los archivos dicen ender g... es o no es la pelicula?
Muchas gracias!! vamos ver que tal es la peli!! despues comento!!
Cita hackblack: Mostrar
sii tenes razon, ahi lo corregi, puse sin querer los enlaces de otro pelicula, pero ahi lo arregle
Los puedes subir a mega?
Cita thebestmsf: Mostrar
pues si al menos hay una recomendaci?
la subiras a MEGA?
Pero que mierda de servidor... parece que est?
Cita xhyruja: Mostrar
Gracias men  
Para dejar un comentario Registrate! o.. eres ya usuario? Accede!