Ender's Game 2013 [WEB-DL 1080p][VO][Sub Esp]


 Ender's Game 2013
 WEB-DL 1080p | Audio Ingles AC3 5.1 | Sub Español | 1.40 GB
 En el año 2070 la humanidad está en guerra con una raza extraterrestre conocida como los Insectores (su nombre proviene del parecido que tienen a los insectos). Tras fracasar en su Primera Invasión del sistema solar, los insectores lanzan una Segunda Invasión más poderosa, que fue detenida en el último momento por el talento de un estratega, Mazer Rackham. Pero han pasado décadas, y la humanidad se enfrenta a un futuro exterminio por los extraterrestres.




Sinopsis:

Andrew Ender Wiggin es un niño prodigio estadounidense, reclutado por la Flota Internacional para su entrenamiento y futuro liderazgo en la guerra contra los Insectores. Ender es el tercero de tres hermanos en una sociedad con restricciones de natalidad por el exceso de población en el que las familias no pueden tener más de dos hijos. Ender fue engendrado con permiso del gobierno, ya que sus hermanos fueron unos genios, y con la condición de que a los seis años volverían a por él para instruirle y convertirlo en el mejor comandante de la historia.

Su personalidad viene marcada por la rivalidad y temor hacia su hermano Peter que le odia por ser mejor que él y el amor y compasión de su hermana Valentine. En la Escuela de Batalla se transforma rápidamente en un líder nato deslumbrando a sus profesores y compañeros, pasando de ser el cadete de menor edad a comandante de la Escuadra Dragón, creada ex profeso para ponerle las cosas difíciles, y que terminará rompiendo todas las estadísticas de la escuela. Como parte de su entrenamiento psicológico Ender practica un Juego de fantasía el cual es controlado con brutalidad por el cínico Coronel Hyrum Graff, director de la Escuela, al igual que las pruebas a las que le someten continuamente hasta el examen final, la verdadera prueba de su valía para salvar el mundo.

Mientras Ender sigue su entrenamiento, sus dos hermanos buscan modificar la opinión pública mundial mediante su participación en foros de redes informáticas, bajo dos personalidades fingidas, el sensato Locke (a cargo de Peter) y el demagogo xenófobo Demóstenes (a cargo de Valentine). Su principal meta es lograr que los líderes mundiales no pertenecientes al Pacto de Varsovia se den cuenta de los planes expansionistas que tienen los rusos y sus aliados.

Datos de la Pelicula
 Título: El juego de Ender
 Título original: Ender's Game
 País: USA
 Estreno en USA: 01/11/2013
 Estreno en España: 08/11/2013
 Productora: Summit Entertainment
 Director: Gavin Hood
 Guión: Orson Scott Card, Roberto Orci
 Reparto: Asa Butterfield, Harrison Ford, Abigail Breslin, Ben Kingsley, Hailee Steinfeld, Viola Davis, Brendan Meyer, Aramis Knight, Moises Arias, Jimmy Pinchak, Suraj Parthasarathy, Conor Carroll, Khylin Rhambo

Info Codificacion
 General

Complete name : Enders.Game.2013.1080p.WEB-DL.almacervecera.mkv
 Format : Matroska
 Format version : Version 4 / Version 2
 File size : 1.40 GiB
 Duration : 1h 53mn
 Overall bit rate : 1 764 Kbps
 Movie name : Enders.Game.2013.1080p.WEB-DL.almacervecera
 Encoded date : UTC 2014-01-28 19:06:37
 Writing application : mkvmerge v6.7.0 64bit built on Jan 8 2014 15:10:52
 Writing library : libebml v1.3.0 + libmatroska v1.4.1
 Attachment : Yes

Video
 ID : 1
 Format : AVC
 Format/Info : Advanced Video Codec
 Format profile : [email protected]
 Format settings, CABAC : Yes
 Format settings, ReFrames : 6 frames
 Codec ID : V_MPEG4/ISO/AVC
 Duration : 1h 53mn
 Bit rate : 1 345 Kbps
 Width : 1 912 pixels
 Height : 800 pixels
 Display aspect ratio : 2.40:1
 Frame rate mode : Constant
 Frame rate : 23.976 fps
 Color space : YUV
 Chroma subsampling : 4:2:0
 Bit depth : 8 bits
 Scan type : Progressive
 Bits/(Pixel*Frame) : 0.037
 Stream size : 1.07 GiB (76%)
 Title : almacervecera
 Writing library : x264 core 130 r2273 b3065e6
 Encoding settings : cabac=1 / ref=6
 Language : English
 Default : Yes
 Forced : No
 Color primaries : BT.709
 Transfer characteristics : BT.709
 Matrix coefficients : BT.709

Audio
 ID : 2
 Format : AC-3
 Format/Info : Audio Coding 3
 Mode extension : CM (complete main)
 Format settings, Endianness : Big
 Codec ID : A_AC3
 Duration : 1h 53mn
 Bit rate mode : Constant
 Bit rate : 384 Kbps
 Channel count : 6 channels
 Channel positions : Front: L C R, Side: L R, LFE
 Sampling rate : 48.0 KHz
 Bit depth : 16 bits
 Compression mode : Lossy
 Stream size : 313 MiB (22%)
 Title : almacervecera
 Language : English
 Default : Yes
 Forced : No

Subtitulos
 ID : 3
 Format : UTF-8
 Codec ID : S_TEXT/UTF8
 Codec ID/Info : UTF-8 Plain Text
 Title : almacervecera
 Language : Spanish
 Default : Yes
 Forced : No

Subtitulos
 En Formato SRT, dentro del rar,y multiplexados dentro del MKV para que te funcionen correctamente usar como reproductor de video, VLC,GOM,Media Player Classic,KMPlayer.

Capturas

















Sin contraseña | Facil Extraction

BILLONUPLOADS


 - MAS ENLACES ACA:
http://www.udenti.li/index.php?topic=24199#sthash.Jo12N3Ia.dpuf
Ender's Game 2013 [WEB-DL 1080p][VO][Sub Esp]
0 Puntos Score: 0/10
Visitas: 2337 Favoritos: 3
2 Comentarios Ender's Game 2013 [WEB-DL 1080p][VO][Sub Esp]
Para dejar un comentario Registrate! o.. eres ya usuario? Accede!