Pi El Orden del Caos Latino 1998



Sinopsis
La película trata sobre Maximillian Cohen, un matemático muy reservado, bastante paranoico y aquejado de fuertes migrañas, quien cree que toda la naturaleza puede ser representada mediante números. Max pretende descubrir el modelo matemático de la bolsa a través de cálculos y programas propios que introduce con su ordenador Euclides. Después de una inspiración provocada por la cábala, que le enseñan un grupo de místicos judíos, Maximillian crea un programa con el que consigue unas pocas predicciones impresas en un papel, pero a costa de fundir el ordenador y los datos, debido a un bug (error de software) que hace que aparezca un número de doscientos dieciséis dígitos después de las predicciones. Decide tirar el papel de las predicciones y el bug pensando que se trataba de un fallo en el programa.
Más tarde, su mentor (que estudiaba el número PI), le cuenta que él también había sufrido varios bugs en su estudio, y que aparentaba haber detrás algo más que un simple error de software.
A partir de ese momento Maximillian se ve envuelto en una persecución, por una parte de una empresa que consigue el papel con las predicciones, que han resultado muy exactas, y el grupo de judíos estudiantes de la Torá que quieren el número de 216 dígitos, ya que representa el verdadero nombre de Dios, que se perdió en la destrucción del segundo templo de Salomón.




Format                           : AVI

Format/Info                      : Audio Video Interleave

File size                        : 802 MiB

Duration                         : 1h 23mn

Overall bit rate                 : 1 338 Kbps

Writing application              : MEncoder SVN-r30881(20100311-gcc4.3.3)

Writing library                  : MPlayer


Video

ID                               : 0

Format                           : MPEG-4 Visual

Format profile                   : Advanced [email protected]

Format settings, BVOP            : 2

Format settings, QPel            : No

Format settings, GMC             : No warppoints

Format settings, Matrix          : Default (H.263)

Codec ID                         : XVID

Codec ID/Hint                    : XviD

Duration                         : 1h 23mn

Bit rate                         : 1 198 Kbps

Width                            : 720 pixels

Height                           : 480 pixels

Display aspect ratio             : 3:2

Frame rate                       : 24.000 fps

Standard                         : NTSC

Color space                      : YUV

Chroma subsampling               : 4:2:0

Bit depth                        : 8 bits

Scan type                        : Progressive

Compression mode                 : Lossy

Bits/(Pixel*Frame)               : 0.144

Stream size                      : 718 MiB (90%)

Writing library                  : XviD 1.2.1 (UTC 2008-12-04)


Audio

ID                               : 1

Format                           : MPEG Audio

Format version                   : Version 1

Format profile                   : Layer 3

Mode                             : Joint stereo

Mode extension                   : MS Stereo

Codec ID                         : 55

Codec ID/Hint                    : MP3

Duration                         : 1h 23mn

Bit rate mode                    : Constant

Bit rate                         : 128 Kbps

Channel(s)                       : 2 channels

Sampling rate                    : 44.1 KHz

Compression mode                 : Lossy

Delay relative to video          : 42ms

Stream size                      : 76.7 MiB (10%)

Alignment                        : Aligned on interleaves

Interleave, duration             : 26 ms (0.63 video frame)

Interleave, preload duration     : 522 ms









Hola






Te invito a pasar a mi humilde y olvidado post de esta fantastica serie Metal Evolution Series sobre origen del metal y sus distintas ramificaciones  SERIE COMPLETA TOTALMENTE SUBTITULADA EN EL MEJOR FORMATO MKV
















Pi El Orden del Caos Latino 1998
37 Puntos Score: 9.3/10
Visitas: 1688 Favoritos: 1
Ver los usuarios que votaron...
5 Comentarios Pi El Orden del Caos Latino 1998
Gracias por compartir
@SALAGUIN7K saludos
Cita SALAGUIN7K: Mostrar
peliculaza estimado = la tengo Full y es absolutamente recomendable
@nicknamesy
Cita nicknamesy: Mostrar
igual tengo el full pero ni para postearlo casi nadie agradece
Muchas gracias  
Para dejar un comentario Registrate! o.. eres ya usuario? Accede!