La Montaña Sagrada - Leni Riefenstahl - 1926



Datos históricos



Die heilige Berg
es una de las muchas películas que hizo Riefenstahl sobre montaña y es la primera en donde aparece como actriz. Originalmente fue filmada en blanco y negro pero durante la restauración que se le hizo en 2002 fue pasada a azul y amarillo. La película que vemos actualmente fue reconstruida en laboratorio usando dos originales para mantener la mayor fidelidad posible.

 
Lo que hay que ver es que la película presenta a la montaña como siempre peligrosa y a los montañistas como unos seres que prácticamente desprecian el peligro al meterse bajo aludes de nieve y escalar en condiciones precarias. Lo cierto es que tirar tanta nieve sobre los actores debió haberles costado bastante trabajo.
 
 Ficha técnica
 Título original: Die heilige Berg
 Subtítulos: inglés
 Dirección: Leni Riefenstahl

 Duración: 106 minutos
 Restaurada: 2002
 Locaciones: Montañas de Suiza (no especificadas, pero aparece el Cervino al inicio= y estudios de Alemania.
 Actores: Leni Riefenstahl, Luis Trenker, Ernst Petersen en los personajes principales.


Die heilige Berg es una de las muchas películas que hizo Riefenstahl sobre montaña y es la primera en donde aparece como actriz. Originalmente fue filmada en blanco y negro pero durante la restauración que se le hizo en 2002 fue pasada a azul y amarillo. La película que vemos actualmente fue reconstruida en laboratorio usando dos originales para mantener la mayor fidelidad posible.

Lo que hay que ver es que la película presenta a la montaña como siempre peligrosa y a los montañistas como unos seres que prácticamente desprecian el peligro al meterse bajo aludes de nieve y escalar en condiciones precarias. Lo cierto es que tirar tanta nieve sobre los actores debió haberles costado bastante trabajo.



Ficha técnica


Título original: Die Heilige Berg
Subtítulos: inglés
Dirección: Leni Riefenstahl
Duración: 106 minutos
Restaurada: 2002
Locaciones: Montañas de Suiza (no especificadas, pero aparece el Cervino al inicio= y estudios de Alemania.
Actores: Leni Riefenstahl, Luis Trenker, Ernst Petersen en los personajes principales.



Die heilige Berg es una de las muchas películas que hizo Riefenstahl sobre montaña y es la primera en donde aparece como actriz. Originalmente fue filmada en blanco y negro pero durante la restauración que se le hizo en 2002 fue pasada a azul y amarillo. La película que vemos actualmente fue reconstruida en laboratorio usando dos originales para mantener la mayor fidelidad posible.
 
Lo que hay que ver es que la película presenta a la montaña como siempre peligrosa y a los montañistas como unos seres que prácticamente desprecian el peligro al meterse bajo aludes de nieve y escalar en condiciones precarias. Lo cierto es que tirar tanta nieve sobre los actores debió haberles costado bastante trabajo.
 

 Ficha técnica
 Título original: Die heilige Berg
 Subtítulos: inglés
 Dirección: Leni Riefenstahl

 Duración: 106 minutos
 Restaurada: 2002
 Locaciones: Montañas de Suiza (no especificadas, pero aparece el Cervino al inicio= y estudios de Alemania.
 Actores: Leni Riefenstahl, Luis Trenker, Ernst Petersen en los personajes principales.
 
Argumento
La bailarina Diotima se encuentra con Karl, ingeniero y esquiador, en su casa de campo de las montañas, donde se enamoran y tienen un romance. Vigo, el amigo de Karl, piensa equivocadamente que Diotima está enamorada de él. Karl ve a Diotima  acariciando inocentemente a Vigo y cree que ella le está traicionando con su amigo.

En las escenas del inicio Leni Riefenstahl baila la Danza a la orilla del mar / Tanz an das Meer en Helgoland, una pequeña isla alemana en el mar del Norte. En las imágenes podemos observar una inmensa aguja rocosa de 47 metros de altura, la Lange Anna. La bailarina se sincroniza con las olas del mar.


Info archivoComplete name Der Heilige berg 1926
Format                         : MPEG-4

Format profile                 : Base Media
Codec ID                       : isom
File size                      : 1.20 GiB
Duration                       : 1h 45mn
Overall bit rate mode          : Variable
Bit rate                       : 1 501 Kbps
Width                          : 640 pixels
Height                         : 480 pixels
Display aspect ratio           : 4:3
Frame rate mode                : Constant
Frame rate                     : 29.970 fps
Color space                    : YUV
Stream size                    : 1.11 GiB (92%)
Writing library                : Lavc51.40.4

Audio

Format                         : AAC
Format/Info   : Advanced Audio Codec
Format profile                 : LC
Codec ID                       : 40
Duration                       : 1h 45mn
Bit rate mode                  : Variable
Bit rate                       : 128 Kbps
Channel count                  : 2 channels
Sampling rate                  : 44.1 KHz
Compression mode               : Lossy
Stream size                    : 96.6 MiB (8%)




Capturas













La Montaña Sagrada - Leni Riefenstahl - 1926
20 Puntos Score: 10/10
Visitas: 3809 Favoritos: 3
Ver los usuarios que votaron...
Más del Autor...
No se encontraron más posts
4 Comentarios La Montaña Sagrada - Leni Riefenstahl - 1926
Bienvenido a Identi, buen aporte!!!
Cita sawadypap: Mostrar
Gracias
Pense que era la de Jodorowski.
Vuelvo hermano.
Buenisimo esto.
Para dejar un comentario Registrate! o.. eres ya usuario? Accede!