Keane - The Best Of (2013)(Flac)(Mg)










Información


Formato: Flac (image + .cue) + Log

Scans: En el rar

Año: 2013



Lista de canciones:


CD 1


01. Everybody's Changing

02. Somewhere Only We Know

03. Bend & Break

04. Bedshaped

05. This Is The Last Time

06. Atlantic

07. Is It Any Wonder?

08. Nothing In My Way

09. Hamburg Song

10. Crystal Ball

11. A Bad Dream

12. Try Again

13. Spiralling

14. Perfect Symmetry

15. My Shadow

16. Silenced By The Night

17. Disconnected

18. Sovereign Light Café

19. Higher Than The Sun

20. Won't Be Broken




Log:

Exact Audio Copy V1.0 beta 3 from 29. August 2011

EAC extraction logfile from 28. December 2013, 14:12

Keane / The Best Of (CD-1)

Used drive  : HL-DT-STDVDRAM GH22NS50   Adapter: 2  ID: 1

Read mode               : Secure
Utilize accurate stream : Yes
Defeat audio cache      : Yes
Make use of C2 pointers : No

Read offset correction                      : 667
Overread into Lead-In and Lead-Out          : No
Fill up missing offset samples with silence : Yes
Delete leading and trailing silent blocks   : No
Null samples used in CRC calculations       : Yes
Used interface                              : Installed external ASPI interface

Used output format : Internal WAV Routines
Sample format      : 44.100 Hz; 16 Bit; Stereo


TOC of the extracted CD

     Track |   Start  |  Length  | Start sector | End sector 
    ---------------------------------------------------------
        1  |  0:00.00 |  3:35.74 |         0    |    16198   
        2  |  3:35.74 |  3:55.66 |     16199    |    33889   
        3  |  7:31.65 |  3:38.32 |     33890    |    50271   
        4  | 11:10.22 |  4:35.07 |     50272    |    70903   
        5  | 15:45.29 |  3:27.49 |     70904    |    86477   
        6  | 19:13.03 |  4:10.59 |     86478    |   105286   
        7  | 23:23.62 |  3:05.61 |    105287    |   119222   
        8  | 26:29.48 |  3:59.74 |    119223    |   137221   
        9  | 30:29.47 |  4:37.27 |    137222    |   158023   
       10  | 35:06.74 |  3:53.39 |    158024    |   175537   
       11  | 39:00.38 |  5:02.61 |    175538    |   198248   
       12  | 44:03.24 |  4:27.24 |    198249    |   218297   
       13  | 48:30.48 |  3:24.01 |    218298    |   233598   
       14  | 51:54.49 |  5:11.40 |    233599    |   256963   
       15  | 57:06.14 |  4:49.29 |    256964    |   278667   
       16  | 61:55.43 |  3:16.25 |    278668    |   293392   
       17  | 65:11.68 |  3:56.73 |    293393    |   311165   
       18  | 69:08.66 |  3:28.10 |    311166    |   326775   
       19  | 72:37.01 |  3:21.49 |    326776    |   341899   
       20  | 75:58.50 |  3:42.32 |    341900    |   358581   


Range status and errors

Selected range

     Filename D:Keane - The Best OfCD-1Keane - The Best Of (CD-1).wav

     Peak level 99.6 %
     Extraction speed 2.1 X
     Range quality 100.0 %
     Test CRC C67C1677
     Copy CRC C67C1677
     Copy OK

No errors occurred

 
AccurateRip summary
 
Track  1  accurately ripped (confidence 4)
Track  2  accurately ripped (confidence 4)
Track  3  accurately ripped (confidence 4)
Track  4  accurately ripped (confidence 4)
Track  5  accurately ripped (confidence 4)
Track  6  accurately ripped (confidence 4)
Track  7  accurately ripped (confidence 4)
Track  8  accurately ripped (confidence 4)
Track  9  accurately ripped (confidence 4)
Track 10  accurately ripped (confidence 4)
Track 11  accurately ripped (confidence 4)
Track 12  accurately ripped (confidence 4)
Track 13  accurately ripped (confidence 4)
Track 14  accurately ripped (confidence 4)
Track 15  accurately ripped (confidence 4)
Track 16  accurately ripped (confidence 4)
Track 17  accurately ripped (confidence 4)
Track 18  accurately ripped (confidence 4)
Track 19  accurately ripped (confidence 4)
Track 20  accurately ripped (confidence 4)
 
All tracks accurately ripped

End of status report

==== Log checksum AD22DDE74F964291413C5A890667FE244323D26A0CB20B243E552BDFD730B7D1 ====





CD 2


01. Snowed Under

02. Walnut Tree

03. Fly To Me

04. To The End Of The Earth

05. The Way You Want

06. Something In Me Was Dying

07. Allemande

08. Let It Slide

09. He Used To Be A Lovely Boy

10. Thin Air

11. The Iron Sea

12. Maybe I Can Change

13. Time To Go

14. Staring At The Ceiling

15. Myth

16. Difficult Child

17. Sea Fog

18. Russian Farmer's Song




Log:

Exact Audio Copy V1.0 beta 3 from 29. August 2011

EAC extraction logfile from 28. December 2013, 15:49

Keane / The Best Of (CD-2)

Used drive  : HL-DT-STDVDRAM GH22NS50   Adapter: 2  ID: 1

Read mode               : Secure
Utilize accurate stream : Yes
Defeat audio cache      : Yes
Make use of C2 pointers : No

Read offset correction                      : 667
Overread into Lead-In and Lead-Out          : No
Fill up missing offset samples with silence : Yes
Delete leading and trailing silent blocks   : No
Null samples used in CRC calculations       : Yes
Used interface                              : Installed external ASPI interface

Used output format : Internal WAV Routines
Sample format      : 44.100 Hz; 16 Bit; Stereo


TOC of the extracted CD

     Track |   Start  |  Length  | Start sector | End sector 
    ---------------------------------------------------------
        1  |  0:00.00 |  3:49.40 |         0    |    17214   
        2  |  3:49.40 |  3:37.33 |     17215    |    33522   
        3  |  7:26.73 |  5:32.73 |     33523    |    58495   
        4  | 12:59.71 |  3:02.55 |     58496    |    72200   
        5  | 16:02.51 |  3:16.62 |     72201    |    86962   
        6  | 19:19.38 |  4:46.15 |     86963    |   108427   
        7  | 24:05.53 |  4:23.15 |    108428    |   128167   
        8  | 28:28.68 |  4:09.32 |    128168    |   146874   
        9  | 32:38.25 |  3:36.15 |    146875    |   163089   
       10  | 36:14.40 |  3:56.74 |    163090    |   180863   
       11  | 40:11.39 |  4:29.66 |    180864    |   201104   
       12  | 44:41.30 |  3:55.33 |    201105    |   218762   
       13  | 48:36.63 |  3:49.44 |    218763    |   235981   
       14  | 52:26.32 |  3:50.66 |    235982    |   253297   
       15  | 56:17.23 |  4:54.52 |    253298    |   275399   
       16  | 61:12.00 |  3:44.74 |    275400    |   292273   
       17  | 64:56.74 |  3:41.15 |    292274    |   308863   
       18  | 68:38.14 |  6:34.59 |    308864    |   338472   


Range status and errors

Selected range

     Filename D:Keane - The Best OfCD-2Keane - The Best Of (CD-2).wav

     Peak level 99.6 %
     Extraction speed 2.0 X
     Range quality 100.0 %
     Test CRC 72A289E1
     Copy CRC 72A289E1
     Copy OK

No errors occurred

 
AccurateRip summary
 
Track  1  accurately ripped (confidence 3)
Track  2  accurately ripped (confidence 3)
Track  3  accurately ripped (confidence 3)
Track  4  accurately ripped (confidence 3)
Track  5  accurately ripped (confidence 3)
Track  6  accurately ripped (confidence 3)
Track  7  accurately ripped (confidence 3)
Track  8  accurately ripped (confidence 3)
Track  9  accurately ripped (confidence 3)
Track 10  accurately ripped (confidence 3)
Track 11  accurately ripped (confidence 3)
Track 12  accurately ripped (confidence 3)
Track 13  accurately ripped (confidence 3)
Track 14  accurately ripped (confidence 3)
Track 15  accurately ripped (confidence 3)
Track 16  accurately ripped (confidence 3)
Track 17  accurately ripped (confidence 3)
Track 18  accurately ripped (confidence 3)
 
All tracks accurately ripped

End of status report

==== Log checksum 3713AD301451FF4988249593D61E2CD9AA996CB3D574AAAD022989DFD8793675 ====







Contraseña: ellocoboni




Keane - The Best Of (2013)(Flac)(Mg)
30 Puntos Score: 10/10
Visitas: 3068 Favoritos: 5
Ver los usuarios que votaron...
15 Comentarios Keane - The Best Of (2013)(Flac)(Mg)
muchisimas gracias!!
@diav
Gracias por pasar y por los puntos  
@R0BERTIT0
Gracias por pasar y por los puntos  
@6996696
Ja ja pesa asi por el formato
Gracias chiquirrir@. Se te debe una muy grande. Con ese formato de m?
@lixiviado
Ja ja gracias por pasar  
Se agradece infinitamente la gesti?
lo estoy descargando
Para dejar un comentario Registrate! o.. eres ya usuario? Accede!