La Sirenita (1989) [3D SBS][BDRip 1080p][Español L

                     





Título original
The Little Mermaid
Año
1989
Duración
79 min.
País 
Estados Unidos
Director
John Musker,  Ron Clements
Guión
John Musker, Ron Clements (Cuento: Hans Christian Andersen)
Música
Alan Menken
Fotografía
Animation
Reparto
Animation
Productora
Walt Disney Pictures
Género
Animación. Fantástico. Musical. Infantil | Mitología. Aventuras marinas. Cuentos 
Sinopsis
Ariel, hija del rey Tritón, es la princesa de las sirenas. Está a punto de celebrarse su fiesta de cumpleaños, y su mayor ilusión sería la de poder conocer a los humanos, puesto que nunca los ha visto. Ayudada por la bruja Úrsula, Ariel conseguirá subir a la superficie, donde salvará de morir ahogado a un hermoso príncipe, Eric, cuyo barco acaba de naufragar y del que se enamorará perdidamente... (FILMAFFINITY)






General
Unique ID                                : 194849030528638800113543133213474727350 (0x92968EE9AB0B085283A5D5FF8404A5B6)
Complete name                            : SIRENITALa Sirenita 1989 3D SBS Latino.mkv
Format                                  : Matroska
Format version                          : Version 2
File size                                : 5.60 GiB
Duration                                : 1h 22mn
Overall bit rate                        : 9 682 Kbps
Movie name                              :   - La Sirenita (2013) 3D SBS BDRip 1080p Latino
Encoded date                            : UTC 2013-09-19 18:01:43
Writing application                      : mkvmerge v3.4.0 ('Rapunzel') built on May 15 2010 09:38:20
Writing library                          : libebml v0.8.0 + libmatroska v0.9.0
Video
ID                                      : 1
Format                                  : AVC
Format/Info                              : Advanced Video Codec
Format profile                          : [email protected]
MultiView_Count                          : 2
MultiView_Layout                        : Right Eye
Format settings, CABAC                  : Yes
Format settings, ReFrames                : 4 frames
Codec ID                                : V_MPEG4/ISO/AVC
Duration                                : 1h 22mn
Bit rate                                : 7 340 Kbps
Width                                    : 1 920 pixels
Height                                  : 1 080 pixels
Display aspect ratio                    : 16:9
Frame rate mode                          : Constant
Frame rate                              : 23.976 fps
Color space                              : YUV
Chroma subsampling                      : 4:2:0
Bit depth                                : 8 bits
Scan type                                : Progressive
Bits/(Pixel*Frame)                      : 0.148
Stream size                              : 4.25 GiB (76%)
Title                                    :   - La Sirenita (2013)
Language                                : English
Default                                  : No
Forced                                  : No

Audio #1
ID                                      : 2
Format                                  : AC-3
Format/Info                              : Audio Coding 3
Mode extension                          : CM (complete main)
Format settings, Endianness              : Big
Codec ID                                : A_AC3
Duration                                : 1h 22mn
Bit rate mode                            : Constant
Bit rate                                : 640 Kbps
Channel(s)                              : 6 channels
Channel positions                        : Front: L C R, Side: L R, LFE
Sampling rate                            : 48.0 KHz
Bit depth                                : 16 bits
Compression mode                        : Lossy
Stream size                              : 379 MiB (7%)
Title                                    :  - Audio Latino 5.1
Language                                : Spanish   vellanizar
Default                                  : Yes
Forced                                  : Yes

Audio #2
ID                                      : 3
Format                                  : DTS
Format/Info                              : Digital Theater Systems
Mode                                    : 16
Format settings, Endianness              : Big
Codec ID                                : A_DTS
Duration                                : 1h 22mn
Bit rate mode                            : Constant
Bit rate                                : 1 509 Kbps
Channel(s)                              : 6 channels
Channel positions                        : Front: L C R, Side: L R, LFE
Sampling rate                            : 48.0 KHz
Bit depth                                : 24 bits
Compression mode                        : Lossy
Delay relative to video                  : 11ms
Stream size                              : 894 MiB (16%)
Title                                    :  vellanizar  - English DTS
Language                                : English
Default                                  : No
Forced                                  : No
Menu
00:00:00.000                            : en:00:00:00.000
00:02:17.846                            : en:00:02:17.846
00:03:47.185                            : en:00:03:47.185
00:05:51.643                            : en:00:05:51.643
00:08:56.035                            : en:00:08:56.035
00:10:48.982                            : en:00:10:48.982
00:15:01.359                            : en:00:15:01.359
00:19:04.685                            : en:00:19:04.685
00:22:18.462                            : en:00:22:18.462
00:25:15.723                            : en:00:25:15.723
00:29:06.244                            : en:00:29:06.244
00:32:56.057                            : en:00:32:56.057
00:34:21.476                            : en:00:34:21.476
00:38:49.160                            : en:00:38:49.160
00:40:00.690                            : en:00:40:00.690
00:41:38.413                            : en:00:41:38.413
00:45:42.615                            : en:00:45:42.615
00:50:57.054                            : en:00:50:57.054
00:52:22.556                            : en:00:52:22.556
00:57:21.772                            : en:00:57:21.772
00:59:35.947                            : en:00:59:35.947
01:02:29.204                            : en:01:02:29.204
01:05:45.650                            : en:01:05:45.650
01:10:04.742                            : en:01:10:04.742
01:12:48.739                            : en:01:12:48.739
01:15:33.154                            : en:01:15:33.154
01:18:19.403                            : en:01:18:19.403





 


  
 
 
 



 









 La Sirenita 3D 1989 [SBS][BDRIP 1080P][ESP 5.1][ING 5.1] 8.52GB 


Pelicula










REV









PASS vellanizar 


17 LINK 500MB + 1 LINK 219MB + 3REV TOTAL 8.52 GB





 














 


La Sirenita (1989) [3D SBS][BDRip 1080p][Español L
30 Puntos Score: 10/10
Visitas: 5648 Favoritos: 3
Ver los usuarios que votaron...
18 Comentarios La Sirenita (1989) [3D SBS][BDRip 1080p][Español L
se agradece !
tendras la de Kuzco de la disney en 3d?
brutal aporte gracias
al contrario gracias por el aporte
tengo el mago de oz 3d no se como subirlo se ve fabuloso
eres super preciosa
BAJADA Y PROBADA, EXCELENTE CALIDAD GRACIASS POR EL APORTE!!!!!!  
@yohand00
Gracias  por comentar se agradece  
@crismo
Gracias   saludos  
@Pollock
Los links funcionan de lujo  
Me imagino que s?
gracias esta va para mis sobrinos  
@garygsm
Muchas gracias    
disculpa no la tendras un poko mas ligera
Para dejar un comentario Registrate! o.. eres ya usuario? Accede!