Lulú en el puente(Lulu on the Bridge) Mira sorvino

Lulú en el puente(Lulu on the Bridge) Mira sorvino sub español dvdrip
Saludos amigos aqui les comparto esta pelicula que ya habia visto hace tiempo y me puse a buscarla y la encontre por torrent,Dias despues la encontre en dvd full en un mercadito pero esa no la subo por que son muchos gigas, a mi me gusto y la comparto con ustedes a ver que les parece, ademas Mira sorvino esta muy bonita:$:love:




Un acto de violencia sin sentido afecta la vida de un virtuoso musico de jazz.Deprimido por lo sucedido y con sus habilidades para tocar simplemente desvanecidas parece perderle sentido a la vida.Pero algo en su destino cambiara su vida para siempre 


Capturas






General
Complete name                            : E:Lulu.on.the.Bridge.1998.DVDRip.Rus.Eng.by.Cinema-Group.info.avi
Format                                   : AVI
Format/Info                              : Audio Video Interleave
File size                                : 1.14 GiB
Duration                                 : 1h 39mn
Overall bit rate                         : 1 637 Kbps
Writing application                      : VirtualDubMod 1.5.4.1 (build 2178/release)
Writing library                          : VirtualDubMod build 2178/release

Video
ID                                       : 0
Format                                   : MPEG-4 Visual
Format profile                           : Advanced [email protected]
Format settings, BVOP                    : 1
Format settings, QPel                    : No
Format settings, GMC                     : No warppoints
Format settings, Matrix                  : Default (H.263)
Codec ID                                 : XVID
Codec ID/Hint                            : XviD
Duration                                 : 1h 39mn
Bit rate                                 : 1 180 Kbps
Width                                    : 720 pixels
Height                                   : 408 pixels
Display aspect ratio                     : 16:9
Frame rate                               : 25.000 fps
Color space                              : YUV
Chroma subsampling                       : 4:2:0
Bit depth                                : 8 bits
Scan type                                : Progressive
Compression mode                         : Lossy
Bits/(Pixel*Frame)                       : 0.161
Stream size                              : 839 MiB (72%)
Writing library                          : XviD 1.2.0.dev47 (UTC 2006-11-01)

Audio
ID                                       : 1
Format                                   : AC-3
Format/Info                              : Audio Coding 3
Mode extension                           : CM (complete main)
Format settings, Endianness              : Big
Codec ID                                 : 2000
Duration                                 : 1h 39mn
Bit rate mode                            : Constant
Bit rate                                 : 448 Kbps
Channel count                            : 6 channels
Channel positions                        : Front: L C R, Side: L R, LFE
Sampling rate                            : 48.0 KHz
Bit depth                                : 16 bits
Compression mode                         : Lossy
Stream size                              : 319 MiB (27%)
Alignment                                : Split accross interleaves
Interleave, duration                     : 40 ms (1.00 video frame)
Interleave, preload duration             : 500 ms




Audio ingles subtitulos español incluidos en el rar


Lulú en el puente(Lulu on the Bridge) Mira sorvino
20 Puntos Score: 10/10
Visitas: 2538 Favoritos: 4
Ver los usuarios que votaron...
3 Comentarios Lulú en el puente(Lulu on the Bridge) Mira sorvino
Gracias por la pel?
si la recomiendas a de ser buena me la llevo
Graciass me llevo Sorbino para merendarmela hoy en la noche
Chida la chava que se quita el calzoncito
Para dejar un comentario Registrate! o.. eres ya usuario? Accede!