Captain Phillips (2013) FULL 1080P LATINO-INGL





Informacion de Video y Audio

  
General
Captain Phillips (2013) [FULL 1080p Dual]  
Format : Matroska
Format version : Version 4 / Version 2
File size : 3.46 GiB
Duration : 2h 14mn
Overall bit rate : 3 692 Kbps
Movie name : Captain Phillips (2013) [FULL 1080p Dual]  
Encoded date : UTC 2014-01-09 10:27:53
Writing application : mkvmerge v6.0.0 (?Coming Up For Air?) built on Jan 20 2013 09:52:00
Writing library : libebml v1.3.0 + libmatroska v1.4.0

Video
ID : 1
Format : AVC
Format/Info : Advanced Video Codec
Format profile : [email protected]
Format settings, CABAC : Yes
Format settings, ReFrames : 2 frames
Codec ID : V_MPEG4/ISO/AVC
Duration : 2h 14mn
Bit rate : 2 851 Kbps
Width : 1 920 pixels
Height : 1 080 pixels
Display aspect ratio : 16:9
Frame rate mode : Constant
Frame rate : 23.976 fps
Color space : YUV
Chroma subsampling : 4:2:0
Bit depth : 8 bits
Scan type : Progressive
Bits/(Pixel*Frame) : 0.057
Stream size : 2.67 GiB (77%)
Writing library : x264 core
Default : Yes
Forced : No
Color primaries : BT.709
Transfer characteristics : BT.709
Matrix coefficients : BT.709

Audio #1
ID : 2
Format : AC-3
Format/Info : Audio Coding 3
Mode extension : CM (complete main)
Format settings, Endianness : Big
Codec ID : A_AC3
Duration : 2h 14mn
Bit rate mode : Constant
Bit rate : 448 Kbps
Channel count : 6 channels
Channel positions : Front: L C R, Side: L R, LFE
Sampling rate : 48.0 KHz
Bit depth : 16 bits
Compression mode : Lossy
Stream size : 430 MiB (12%)
Title : Audio Latino 
Default : Yes
Forced : No

Audio #2
ID : 3
Format : AC-3
Format/Info : Audio Coding 3
Mode extension : CM (complete main)
Format settings, Endianness : Big
Codec ID : A_AC3
Duration : 2h 14mn
Bit rate mode : Constant
Bit rate : 320 Kbps
Channel count : 6 channels
Channel positions : Front: L C R, Side: L R, LFE
Sampling rate : 44.1 KHz
Bit depth : 16 bits
Compression mode : Lossy
Stream size : 307 MiB (9%)
Title : Audio Ingles  
Default : No
Forced : No

Text #1
ID : 4
Format : UTF-8
Codec ID : S_TEXT/UTF8
Codec ID/Info : UTF-8 Plain Text
Title : Subtitulos Latino 
Default : No
Forced : No

Text #2
ID : 5
Format : UTF-8
Codec ID : S_TEXT/UTF8
Codec ID/Info : UTF-8 Plain Text
Title : Subtitulos Ingles  
Default : No
Forced : No

Text #3
ID : 6
Format : UTF-8
Codec ID : S_TEXT/UTF8
Codec ID/Info : UTF-8 Plain Text
Title : Subtitulos Forzadps  
Default : Yes
Forced : No

 




SINOPSIS
Esta es la verdadera historia del Capitán Richard Phillips y el secuestro del MV Maersk Alabama, un navío con bandera estadounidense, en 2009 por piratas somalíes. Con el secuestro del primer buque de carga estadounidense en 200 años, se tejió una historia de tensión, intriga, ambición, horror y esperanza que mantuvo en vilo a una nación y selló el destino de un hombre como el de un héroe moderno.


Contraseña:
CinemaniaHD.org



 




 



 























 



 Si Quieres el Repack Descarga A Qui 


http://www.identi.li/index.php?topic=281336 




 
  



http://www.identi.li/index.php?topic=274907
 


 
Need for Speed Top Gear Edition [PC] [Español] + 
  Descarga  A Qui 
http://www.identi.li/?topic=277235

 
                                              

 



 Descarga  A Qui 
  http://www.identi.li/index.php?topic=278400
 


 




Battlefield 3 Limited Edition

Descarga  A Qui
http://www.identi.li/index.php?topic=279968








 


 


Tom y Jerry Colección Completa [1940-1967] MEGA 



Descarga  A Qui


 

http://www.identi.li/index.php?topic=281529






 




  Assassins Creed IV Black Flag Special Edition    



http://www.identi.li/index.php?topic=282880
Descarga  A Qui




 

 Los post necesitan tus Gracias + identi    
 


  

En este momento les pregunto: ¿Es importante agradecer cuando descargas información de un pots? esta pregunta se responde sola ya que la información que descargas en IDENTI  es gratis y quienes la realizan y hacen sus pots no reciben nada a cambio, solo tan solo tres palabras " Que buen pots"    Si no comentas  previamente en Mis post  NO espere Que te conteste Luego     GRACIAS  


 

 Quieres Juegos ? Entra Este Es Tu Post !! Mega + Descarga  A Qui


http://www.identi.li/?topic=284005#comment_3033420 

 


 

Captain Phillips (2013) FULL 1080P LATINO-INGL
35 Puntos Score: 8.8/10
Visitas: 2588 Favoritos: 3
Ver los usuarios que votaron...
15 Comentarios Captain Phillips (2013) FULL 1080P LATINO-INGL
Buena Pelicula  
@Flash10 @destro2012
Gracias chicos   saludos  
@gastonLBDT
Gracias   saludos  
Gracias, tiene password el archivo?
excelente aporte ahi te van +10
Muchas gracias por la pel?
Gracias Vellanizar por compartir
excelente, tenia ganas de ver la movie dsd hace rato, gracias  
Gracias por compartir
Para dejar un comentario Registrate! o.. eres ya usuario? Accede!