Megadeth Countdown to Extinction Live




Artist: Megadeth
Title: Countdown to Extinction Live
Genre: Metal

Date: 03 October 2013


1. Megadeth - Trust [5:11]

2. Megadeth - Hangar 18 [5:15]

3. Megadeth - Public Enemy [4:42]

4. Megadeth - Skin O?? My Teeth [3:45]

5. Megadeth - Symphony Of Destruction [3:56]

6. Megadeth - Architecture Of Agression [3:43]

7. Megadeth - Forecloruse Of A Dream [4:15]

8. Megadeth - Rweating Bullets [4:55]

9. Megadeth - This Was My Life [3:46]

10. Megadeth - Countdown To Extinction [4:15]

11. Megadeth - High Speed Dirt [4:17]

12. Megadeth - Psychotron [4:36]

13. Megadeth - Captive Honour [4:15]

14. Megadeth - Ashes In Your Mouth [6:23]

15. Megadeth - She Wolf [3:46]

16. Megadeth - Peace Sells [4:52]

17. Megadeth - Holy Wars...The Punishment Due [8:19]






Format                                   : AVI
Format/Info                              : Audio Video Interleave
Format profile                           : OpenDML
File size                                : 1.39 GiB
Duration                                 : 1h 32mn
Overall bit rate                         : 2 165 Kbps
Writing application                      : Lavf51.12.1

Video
ID                                       : 0
Format                                   : AVC
Format/Info                              : Advanced Video Codec
Format profile                           : [email protected]
Format settings, CABAC                   : No
Format settings, ReFrames                : 2 frames
Format settings, GOP                     : M=1, N=12
Codec ID                                 : H264
Duration                                 : 1h 32mn
Bit rate                                 : 1 959 Kbps
Width                                    : 1 280 pixels
Height                                   : 720 pixels
Display aspect ratio                     : 16:9
Frame rate                               : 23.976 fps
Standard                                 : NTSC
Color space                              : YUV
Chroma subsampling                       : 4:2:0
Bit depth                                : 8 bits
Scan type                                : Progressive
Bits/(Pixel*Frame)                       : 0.089
Stream size                              : 1.26 GiB (90%)
Color primaries                          : BT.601 NTSC
Transfer characteristics                 : BT.601
Matrix coefficients                      : BT.601

Audio
ID                                       : 1
Format                                   : MPEG Audio
Format version                           : Version 1
Format profile                           : Layer 3
Mode                                     : Joint stereo
Mode extension                           : MS Stereo
Codec ID                                 : 55
Codec ID/Hint                            : MP3
Duration                                 : 1h 32mn
Bit rate mode                            : Constant
Bit rate                                 : 192 Kbps
Channel count                            : 2 channels
Sampling rate                            : 44.1 KHz
Compression mode                         : Lossy
Stream size                              : 127 MiB (9%)
Alignment                                : Aligned on interleaves
Interleave, duration                     : 26 ms (0.63 video frame)
Interleave, preload duration             : 26 ms
Writing library                          : LAME3.97








http://BillionUploads.com/gfmecgcs3j8f
http://BillionUploads.com/hynfdywfa7nv
http://BillionUploads.com/mt1law2q17qm
http://BillionUploads.com/7cbaw0tdjk5i
http://BillionUploads.com/8n7b17bwjd27
http://BillionUploads.com/6j4dxeankqo6
http://BillionUploads.com/gvpedq4svjhs
http://BillionUploads.com/s1buyxv9e52d
http://BillionUploads.com/lb9agdngcb6e
http://BillionUploads.com/0ce3yjs863s5





Hola

http://www.identi.li/index.php?topic=263840



Te invito a pasar a mi humilde y olvidado post de esta fantastica serie Metal Evolution Series sobre origen del metal y sus distintas ramificaciones  SERIE COMPLETA TOTALMENTE SUBTITULADA EN EL MEJOR FORMATO MKV















Megadeth Countdown to Extinction Live
58 Puntos Score: 9.7/10
Visitas: 983 Favoritos: 0
Ver los usuarios que votaron...
3 Comentarios Megadeth Countdown to Extinction Live
Me lo llevo... +10  
que buen recital!!!!!!! excelente calidad,gracias Rafa
Muchas gracias  
Para dejar un comentario Registrate! o.. eres ya usuario? Accede!