Oops.. Este post tiene los enlaces eliminados!

Identi revisa las denuncias de los usuarios en busca de enlaces eliminados que no dejan descargar los archivos, este mensaje te informa que este post que estas viendo tiene los enlaces eliminados.

Usa el Buscador

Por favor, te recomendamos que uses el buscador para encontrar más alternativas.

Slam Dunk 1440 x 1080 raw cap 01 al 44 mp4

  • Categoría: Reciclaje
  • Publicado hace más de 2 años
Slam Dunk 1440 x 1080 raw  cap 01 al 44 mp4




Format                         : MPEG-4
Format profile                 : Base Media
Codec ID                       : isom
File size                      : 705 MiB
Duration                       : 23mn 8s
Overall bit rate mode          : Variable
Overall bit rate               : 4 258 Kbps
Encoded date                   : UTC 2013-11-05 05:26:16
Tagged date                    : UTC 2013-11-05 05:26:16

Video
ID                             : 1
Format                         : AVC
Format/Info                    : Advanced Video Codec
Format profile                 : [email protected]
Format settings, CABAC         : Yes
Format settings, ReFrames      : 4 frames
Codec ID                       : avc1
Codec ID/Info                  : Advanced Video Coding
Duration                       : 23mn 8s
Bit rate                       : 4 061 Kbps
Maximum bit rate               : 14.8 Mbps
Width                          : 1 440 pixels
Height                         : 1 080 pixels
Display aspect ratio           : 4:3
Frame rate mode                : Constant
Frame rate                     : 23.976 fps
Color space                    : YUV
Chroma subsampling             : 4:2:0
Bit depth                      : 8 bits
Scan type                      : Progressive
Bits/(Pixel*Frame)             : 0.109
Stream size                    : 672 MiB (95%)
Title                          : sd01.264#1:fps=23.976 - Imported with GPAC 0.5.0-rev4065
Encoded date                   : UTC 2013-11-05 05:26:16
Tagged date                    : UTC 2013-11-05 05:27:04

Audio
ID                             : 2
Format                         : AAC
Format/Info                    : Advanced Audio Codec
Format profile                 : LC
Codec ID                       : 40
Duration                       : 23mn 8s
Bit rate mode                  : Variable
Bit rate                       : 192 Kbps
Maximum bit rate               : 229 Kbps
Channel count                  : 2 channels
Channel positions              : Front: L R
Sampling rate                  : 48.0 KHz
Compression mode               : Lossy
Stream size                    : 32.0 MiB (5%)
Encoded date                   : UTC 2013-11-05 05:27:03
Tagged date                    : UTC 2013-11-05 05:27:04










01 al 04 
MEGA

01 al 04 
PURLOCKER

05 al 08 

MEGA

05 al 08 
Putlocker

09 AL 12
MEGA

09 al 12

Putlocker


13 al 16
MEGA

13 al 16
putlocker


17 al 20
mega

21 al 24

25 al 28


29 al 32
MEGA

33 AL 36
MEGA

37 AL 40
MEGA

40 al 44
MEGA

no tiene


VISITA MI OTRO POST
ATTACK ON TITAN 25/25
Slam Dunk 1440 x 1080 raw cap 01 al 44 mp4
65 Puntos Score: 9.3/10
Visitas: 3241 Favoritos: 4
Ver los usuarios que votaron...
35 Comentarios Slam Dunk 1440 x 1080 raw cap 01 al 44 mp4
buen aporte es 4:3?
@tankard agregada informaci?
no sabia que iban a remasterizar esta serie, la iras subiendo a medida que vallan saliendo? y se que son los raw pero tienes idea de donde conseguir los sub?
ando en lo mismo acabo de encontrar estas raws subire las que sigan saliendo respecto a los subs encontre unos pero hay que sincronizarlos a esta version
Cita nitrooxx: Mostrar
ok estare pendiente de tus aportes + 10  
Este proyecto es de como hace 6 a?
Changos ya no se q hacer tenia pensado descargar una version bastante buena posteada aqui pero no se si estos raw continuaran saliendo, Q HAGO? Q HAGO?, gracias genial aporte.
aki les dejo los subtitulos de la serie completa, son para la version de 320 megas, si gustan les paso la serie completa de esa version, saludos !!!

https://mega.co.nz/#!FFgXHYQT!QPZ0JihQ2e_hQitxm9O_z2lx2e4onPjt5K4HM9SY1y8
@Katsumoto7 subire  todas las raws  que hay hasta el 32 @silvase gracias por los subs creo que son los mismos que tenia  en un rato mas agrego del 5 al 8  a y si alguien quiere otros host para bajar mande mp
exelente amigo, exelente, no hay palabras, me dejaste sin palabras...
no podrias subirlo a mega u otro host por favor, no me funcionaron los links... y quise mandarte un mp pero dice que debo de subir de rango...
muchisimas gracias por este aporte amigo
@momonari gracias por comentar espero que alguien que tenga los audios latino pueda hacer alg?
@momonari estamos enviados los links
ojala las suban todas y dsp se le ponen los audios y quedan listas jojo
Sigue asi!!!!! Un amigo las usara para a?
@maumetal  ojala alguien las utilice para eso esa es la idea @fabrebatalla18 ok que bueno que les sirva tanto para audio latino ,espa?
ME HAN RECOMENDADO ESTE ANIME....NUNCA LA VI!!!!!!! QUE TAL ES????
GRACIAS AMIGO ALLI UNOS PUNTOS!!!!!1
@davenger, puedes ver rese?
Cita momonari: Mostrar
RE-SUBAN LOS LINKS!!!!!!!!!!!!!!!!!!!!!!!
Este Anime realmente es muy bueno, y eso que es bastante conocido. Lo penoso es que hasta ahora no se puede encontrar el Anime por la Web en Excelente calidad visual y de Audio, solo llegan hasta cap?
Cita AterSole: Mostrar
esta todo online fijate bien antes de comentar


Cita AterSole: Mostrar
@nitrooxx ojala que en japon emitan las ovas en esta calidad olle yo tengo los audios latino hasta el capitulo 34 para esta version
@AterSole  y por que no las bajas les pones el audio y las subes tu? eso mismo podr?
@nitrooxx Antes que nada, particularmente respeto el trabajo que hac?
Empeando a bajar en buena calidad  
pronto novedades
Para dejar un comentario Registrate! o.. eres ya usuario? Accede!