Gunner120
"No subo más nada,salvo por supuesto,puntuar :)"

Bruce Lee El Furor Del Dragón Castellano 720p



Video
ID                                       : 1
Format                                   : AVC
Format/Info                              : Advanced Video Codec
Format profile                           : [email protected]
Format settings, CABAC                   : Yes
Format settings, ReFrames                : 4 frames
Codec ID                                 : V_MPEG4/ISO/AVC
Duration                                 : 1h 38mn
Bit rate                                 : 2 562 Kbps
Width                                    : 1 280 pixels
Height                                   : 544 pixels
Display aspect ratio                     : 2.35:1
Frame rate mode                          : Constant
Frame rate                               : 23.976 fps
Color space                              : YUV
Chroma subsampling                       : 4:2:0
Bit depth                                : 8 bits
Scan type                                : Progressive
Bits/(Pixel*Frame)                       : 0.153
Stream size                              : 1.77 GiB (78%)
Title                                    : El furor del dragón 
Writing library                          : x264 core 120
Language                                 : Chinese
Default                                  : Yes
Forced                                   : No
Color primaries                          : BT.709
Transfer characteristics                 : BT.709
Matrix coefficients                      : BT.709

Audio
ID                                       : 2
Format                                   : AC-3
Format/Info                              : Audio Coding 3
Mode extension                           : CM (complete main)
Format settings, Endianness              : Big
Codec ID                                 : A_AC3
Duration                                 : 1h 38mn
Bit rate mode                            : Constant
Bit rate                                 : 640 Kbps
Channel count                            : 6 channels
Channel positions                        : Front: L C R, Side: L R, LFE
Sampling rate                            : 48.0 KHz
Bit depth                                : 16 bits
Compression mode                         : Lossy
Stream size                              : 452 MiB (20%)
Title                                    : AC3 5.1 castellano remasterizado
Language                                 : Spanish
Default                                  : Yes
Forced                                   : No

Peso De Los Rar:2.31gb






Bruce Lee El Furor Del Dragón Castellano 720p
77 Puntos Score: 8.6/10
Visitas: 24981 Favoritos: 5
Ver los usuarios que votaron...
22 Comentarios Bruce Lee El Furor Del Dragón Castellano 720p
Me podes mandar el link directo ya que no uso JD  
Cita gerher12: Mostrar
ok ya te los mando,disfruta la pel?
amigo
Cita Gunner120: Mostrar
Cita JCHacKeR: Mostrar
+10 Muchas Gracias!
Muchas gracias amigo... te dejo + 10
tio cambiale de categoria esta en latino
Cita digho: Mostrar
Gracias por avisar me hab?
@gerher12 @JCHacKeR @dfndsfkh Gracias por visitar mi post!  
Gracias por el aporte amigo! feliz a?
Cita Live404: Mostrar
@CrlsV Claro no hay problema!   te envi?
estoy viendo a un silver  

 
@MATE554 Me has llenado de puntos   pens?
@Gunner120 debes hacer un post mas todavia  
pone los links como todo ser humano normal, sin jdownloader
Para dejar un comentario Registrate! o.. eres ya usuario? Accede!