Qué bello es vivir It's a Wonderful Life latino

Qué bello es vivir It's a Wonderful Life 1946 avi español  latino xvid a color



Saludos aqui les dejo esta pelicula para la coleccion navideña, un poco tarde pero no debe faltar en tu coleccion


Título original: It's a Wonderful Life (Colorized versión)
 
Año: 1946
 
Duración: 130 min.
 
País: Estados Unidos
 
Director: Frank Capra
 
Guión: Frances Goodrich, Albert Hackett, Frank Capra
 
Música: Dimitri TiomkinFotografíaJoseph Walker & Joseph Biroc (B&W)
 
Reparto: James Stewart,  Donna Reed,  Lionel Barrymore,  Thomas Mitchell,  Henry Travers,  Beulah Bondi,  Frank Faylen,  Ward Bond,  Gloria Grahame,  H.B. Warner,  Frank Albertson,  Todd Karns,  Samuel S. Hinds,  Mary Treen,  Virginia Patton,  Charles Williams,  Argentina Brunetti.
 
Productora: RKO presents a Liberty Films Inc. Production
 
Género: Drama. Fantástico | Cine familiar. Navidad. Comedia dramática.


George Bailey (James Stewart) es un honrado y modesto ciudadano que dirige y mantiene a flote un pequeño banco familiar, a pesar de los intentos de un poderoso banquero por arruinarlo. El dia de Nochebuena de 1945, abrumado por la repentina desaparición de una importante suma de dinero, que supondría no solo la quiebra de su banco, sino también un gran escándalo, decide suicidarse, pero cuando está a punto de hacerlo ocurre algo extraordinario.



Capturas 






Esta pelicula la converti a avi de un Blu-ray de 25 gigas que descargue de otra pagina es en español latino y es una version a color la calidas es exelente


Format                                   : AVI
Format/Info                              : Audio Video Interleave
File size                                : 1.57 GiB
Duration                                 : 2h 10mn
Overall bit rate                         : 1 722 Kbps
Writing application                      : VirtualDubMod 1.5.4.1 (build 2178/release)
Writing library                          : VirtualDubMod build 2178/release

Video
ID                                       : 0
Format                                   : MPEG-4 Visual
Format profile                           : Advanced [email protected]
Format settings, BVOP                    : 1
Format settings, QPel                    : No
Format settings, GMC                     : No warppoints
Format settings, Matrix                  : Custom
Codec ID                                 : XVID
Codec ID/Hint                            : XviD
Duration                                 : 2h 10mn
Bit rate                                 : 1 489 Kbps
Width                                    : 720 pixels
Height                                   : 544 pixels
Display aspect ratio                     : 4:3
Frame rate                               : 23.976 fps
Color space                              : YUV
Chroma subsampling                       : 4:2:0
Bit depth                                : 8 bits
Scan type                                : Progressive
Compression mode                         : Lossy
Bits/(Pixel*Frame)                       : 0.159
Stream size                              : 1.36 GiB (86%)
Writing library                          : XviD 64

Audio
ID                                       : 1
Format                                   : AC-3
Format/Info                              : Audio Coding 3
Mode extension                           : CM (complete main)
Format settings, Endianness              : Big
Codec ID                                 : 2000
Duration                                 : 2h 10mn
Bit rate mode                            : Constant
Bit rate                                 : 224 Kbps
Channel count                            : 2 channels
Channel positions                        : Front: L R
Sampling rate                            : 48.0 KHz
Bit depth                                : 16 bits
Compression mode                         : Lossy
Stream size                              : 210 MiB (13%)
Alignment                                : Split accross interleaves
Interleave, duration                     : 42 ms (1.00 video frame)
Interleave, preload duration             : 500 ms


Descarga por mega

Qué bello es vivir It's a Wonderful Life latino
15 Puntos Score: 7.5/10
Visitas: 7956 Favoritos: 4
Ver los usuarios que votaron...
9 Comentarios Qué bello es vivir It's a Wonderful Life latino
Gracias, excelente pel?
WTF yo la tengo en blanco y negro


buen cl?
buenisima viejo, tengo la versi?
@vasilia se ve bien la peli asi [email protected]
@willow1914 @javicho270 de nada amigos  
gracias la estaba buscando en colores, la tengo en blanco y tinto , la queria en esta version graciassssssssssss
:up:estoy bajando las 2 versiones a color y blanco y  negro
Esta muy recomendada vamos a verla pues, y gracias por el aporte y sobre todo por compartirla !!!    
Para dejar un comentario Registrate! o.. eres ya usuario? Accede!