Un santa no tan santo(Bad santa)latino xvid mega


Willie (Billy Bob Thornton) y Marcus (Tony Cox) son dos delincuentes que, aprovechando las Fiestas Navideñas, se les ocurre la genial idea de disfrazarse, uno de Santa Claus y el otro de uno de sus ayudantes, para poder entrar sin crear sospechas en los grandes almacenes, y una vez infiltrados entre el personal del centro comercial robarlo. El plan parece perfecto hasta que se encuentran con un niño de 8 años (Brett Kelly) que les ensenara el verdadero significado de la Navidad.



Capturas 








Format                                   : AVI
Format/Info                              : Audio Video Interleave
File size                                : 1.49 GiB
Duration                                 : 1h 39mn
Overall bit rate                         : 2 144 Kbps
Writing application                      : VirtualDubMod 1.5.4.1 (build 2178/release)
Writing library                          : VirtualDubMod build 2178/release

Video
ID                                       : 0
Format                                   : MPEG-4 Visual
Format profile                           : Advanced [email protected]
Format settings, BVOP                    : No
Format settings, QPel                    : No
Format settings, GMC                     : No warppoints
Format settings, Matrix                  : Custom
Codec ID                                 : XVID
Codec ID/Hint                            : XviD
Duration                                 : 1h 39mn
Bit rate                                 : 1 750 Kbps
Width                                    : 720 pixels
Height                                   : 384 pixels
Display aspect ratio                     : 1.85:1
Frame rate                               : 23.976 fps
Color space                              : YUV
Chroma subsampling                       : 4:2:0
Bit depth                                : 8 bits
Scan type                                : Progressive
Compression mode                         : Lossy
Bits/(Pixel*Frame)                       : 0.264
Stream size                              : 1.22 GiB (82%)
Writing library                          : XviD 64

Audio
ID                                       : 1
Format                                   : AC-3
Format/Info                              : Audio Coding 3
Mode extension                           : CM (complete main)
Format settings, Endianness              : Big
Codec ID                                 : 2000
Duration                                 : 1h 39mn
Bit rate mode                            : Constant
Bit rate                                 : 384 Kbps
Channel count                            : 6 channels
Channel positions                        : Front: L C R, Side: L R, LFE
Sampling rate                            : 48.0 KHz
Bit depth                                : 16 bits
Compression mode                         : Lossy
Stream size                              : 274 MiB (18%)
Alignment                                : Split accross interleaves
Interleave, duration                     : 42 ms (1.00 video frame)
Interleave, preload duration             : 500 ms


Servidor mega
Un santa no tan santo(Bad santa)latino xvid mega
25 Puntos Score: 8.3/10
Visitas: 8915 Favoritos: 0
Ver los usuarios que votaron...
19 Comentarios Un santa no tan santo(Bad santa)latino xvid mega
esta peli es nueva??? o es una peli vieja??
hice una pregunta nada mas... no se porque mierda me borraste el comentario
Gracias no recuerdo haberla visto  
@JCHacKeR esta pelicula es del 2003,y no se a cual comentario te refieres, creo que te equivocaste de post yo no he borrado nada  
Muchas gracias!!!Pelicula muy dificil de encontrar.Ya te la van a pedir "prestado" los de blogpeliculas
Cita cmsg_03: Mostrar
hace unos dias lo posteo Yeudas de movieshdgratis en 1080p y 720p  , se ve que no han estado atento
Muchas gracias! Parece linda peli. La llevare!
lO VEO Y NO LO CREO... 5 A?
El link esta fuera de linea... chacalo
Mil disculpas... Estan en linea... Bajando y agradeciendo.
T amo carajo!! he estado buscando esta peli en latino!!!. T AMO!!!:
me lopasas x privado al link
@AsherB si  muchos no buscan y se les pasa a mi me ha pasado que estoy como loco buscando una peli y al final la vengo encontrando aqui por eso ahora siempre busco en las categorias,yo la converti a avi de una 720 que baje aqui en identi
muchas gracias salu2
graciasss, no tendras la novia fugitiva d julia roberts o velocidad terminal de charlie sheen?
wow, por fin, y en espa?
Para dejar un comentario Registrate! o.. eres ya usuario? Accede!